(Classical/Vocal) Vivaldi - Arie per tenore (Topi Lehtipuu, I Barocchisti - Diego Fasolis, 2010), Naive - 2010, FLAC (tracks+.cue), lossless


 

[Цитировать]

Антонио Вивальди
"Arie per tenore"

The Vivaldi Edition: Opera teatrale, vol 15
- Жанр: Classical/Opera
Год выпуска диска: 2010
Дата записи: апрель-май 2010
Производитель диска: Naïve
Номер в каталоге: OP30504
Аудио кодек: FLAC
Тип рипа: tracks+.cue
Битрейт аудио: lossless - mp3
Продолжительность: 1 CD, 01:05:26-Исполнитель: Topi Lehtipuu
Хор: Coro della Radiotelevisione Svizzera
Ансамбль: I Barocchisti
Руководитель: Diego Fasolis
-Источник: Bibixy (WhatCD)
Запись сделана в апреле-мае 2010 года в радиостудии "Stelio Molo", RSI, Лугано (Швейцария).

Треклист

01. La fatal sentenza (Tito Manlio) [00:02:35]
02. La tiranna avversa sorte (a) (Arsilda regina di Ponto) [00:05:29]
03. Non sempre folgora (La costanza trionfante) [00:03:05]
04. Va per selve e sol pien d’ira (Arsilda regina di Ponto) [00:03:08]
05. Care pupille (Tigrane) [00:05:53]
06. Concerto ripieno RV 110 - Allegro [00:01:41]
07. Concerto ripieno RV 110 - Largo [00:01:27]
08. Concerto ripieno RV 110 - Allegro [00:01:20]
09. Col furor ch’in petto io serbo (L’incoronazione di Dario) [00:02:55]
10. Cessa tiranno amor (L’incoronazione di Dario) [00:02:32]
11. La tiranna avversa sorte (b) (Arsilda regina di Ponto) [00:03:12]
12. Cada pur sul capo audace (Artabano re de’ Parti) [00:03:52]
13. Va superbo quel vassallo (Arsilda regina di Ponto) [00:03:33]
14. Fido amante frammento strumentale (L’incoronazione di Dario) [00:01:06]
15. Il figlio, il reo (Tito Manlio) [00:04:22]
16. Già lasciò la nobil salma (Tito Manlio) [00:03:16]
17. Vinta a piè d’un dolce affetto (b) (La verità in cimento) [00:03:45]
18. Accompagnato Nume tu che di Tempe (Dorilla in Tempe) [00:00:55]
19. Gemiti e lagrime (Dorilla in Tempe) [00:01:20]
20. Alle minacce di fiera belva (Farnace) [00:04:07]
21. Recitativo Andiam Prence, seguiamla (Bajazet) [00:00:19]
22. A’ suoi piedi Padre esangue (Bajazet) [00:02:35]
23. Dell’aura al sussurrar (Dorilla in Tempe) [00:02:48]

Отчёт EAC

Exact Audio Copy V1.0 beta 3 from 29. August 2011
EAC extraction logfile from 16. January 2013, 6:15
Diego Fasolis & I Barocchisti / Arie per tenore
Used drive : HL-DT-STDVD-ROM GDR8162B Adapter: 1 ID: 1
Read mode : SecureUtilize accurate stream : YesDefeat audio cache : YesMake use of C2 pointers : No
Read offset correction : 102Overread into Lead-In and Lead-Out : NoFill up missing offset samples with silence : YesDelete leading and trailing silent blocks : NoNull samples used in CRC calculations : YesUsed interface : Installed external ASPI interfaceGap handling : Appended to previous track
Used output format : User Defined EncoderSelected bitrate : 1024 kBit/sQuality : HighAdd ID3 tag : NoCommand line compressor : C:\EAC\Flac\flac.exeAdditional command line options : -8 -V -T "ARTIST=%artist%" -T "TITLE=%title%" -T "ALBUM=%albumtitle%" -T "DATE=%year%" -T "TRACKNUMBER=%tracknr%" -T "GENRE=%genre%" -T "PERFORMER=%albuminterpret%" -T "COMPOSER=%composer%" %haslyrics%--tag-from-file=LYRICS="%lyricsfile%"%haslyrics% -T "ALBUMARTIST=%albumartist%" -T "DISCNUMBER=%cdnumber%" -T "TOTALDISCS=%totalcds%" -T "TOTALTRACKS=%numtracks%" -T "COMMENT=%comment%" %source% -o %dest%
TOC of the extracted CD
Track | Start | Length | Start sector | End sector --------------------------------------------------------- 1 | 0:00.00 | 2:35.00 | 0 | 11624 2 | 2:35.00 | 5:29.27 | 11625 | 36326 3 | 8:04.27 | 3:05.37 | 36327 | 50238 4 | 11:09.64 | 3:08.40 | 50239 | 64378 5 | 14:18.29 | 5:53.16 | 64379 | 90869 6 | 20:11.45 | 1:41.04 | 90870 | 98448 7 | 21:52.49 | 1:27.14 | 98449 | 104987 8 | 23:19.63 | 1:20.67 | 104988 | 111054 9 | 24:40.55 | 2:55.16 | 111055 | 124195 10 | 27:35.71 | 2:32.27 | 124196 | 135622 11 | 30:08.23 | 3:12.68 | 135623 | 150090 12 | 33:21.16 | 3:52.38 | 150091 | 167528 13 | 37:13.54 | 3:33.12 | 167529 | 183515 14 | 40:46.66 | 1:06.74 | 183516 | 188539 15 | 41:53.65 | 4:22.61 | 188540 | 208250 16 | 46:16.51 | 3:16.54 | 208251 | 223004 17 | 49:33.30 | 3:45.54 | 223005 | 239933 18 | 53:19.09 | 0:55.72 | 239934 | 244130 19 | 54:15.06 | 1:20.35 | 244131 | 250165 20 | 55:35.41 | 4:07.43 | 250166 | 268733 21 | 59:43.09 | 0:19.01 | 268734 | 270159 22 | 60:02.10 | 2:35.34 | 270160 | 281818 23 | 62:37.44 | 2:48.51 | 281819 | 294469
Track 1
Filename C:\EAC\Diego Fasolis & I Barocchisti - Arie per tenore - La fatal sentenza (Tito Manlio).wav
Pre-gap length 0:00:02.00
Peak level 81.8 % Extraction speed 3.3 X Track quality 99.9 % Test CRC D21CF2E8 Copy CRC D21CF2E8 Accurately ripped (confidence 5) [AA2641A3] (AR v2) Copy OK
Track 2
Filename C:\EAC\Diego Fasolis & I Barocchisti - Arie per tenore - La tiranna avversa sorte (a) (Arsilda regina di Ponto).wav
Peak level 85.3 % Extraction speed 4.7 X Track quality 99.9 % Test CRC FDE5FAF3 Copy CRC FDE5FAF3 Accurately ripped (confidence 4) [97149AE8] (AR v2) Copy OK
Track 3
Filename C:\EAC\Diego Fasolis & I Barocchisti - Arie per tenore - Non sempre folgora (La costanza trionfante).wav
Peak level 92.9 % Extraction speed 5.4 X Track quality 100.0 % Test CRC 7F367C22 Copy CRC 7F367C22 Accurately ripped (confidence 5) [69026191] (AR v2) Copy OK
Track 4
Filename C:\EAC\Diego Fasolis & I Barocchisti - Arie per tenore - Va per selve e sol pien d’ira (Arsilda regina di Ponto).wav
Peak level 97.1 % Extraction speed 4.6 X Track quality 99.9 % Test CRC 889C2D7B Copy CRC 889C2D7B Accurately ripped (confidence 5) [209667C6] (AR v2) Copy OK
Track 5
Filename C:\EAC\Diego Fasolis & I Barocchisti - Arie per tenore - Care pupille (Tigrane).wav
Peak level 65.3 % Extraction speed 5.8 X Track quality 99.9 % Test CRC 8B53E4E6 Copy CRC 8B53E4E6 Accurately ripped (confidence 5) [4D0194F9] (AR v2) Copy OK
Track 6
Filename C:\EAC\Diego Fasolis & I Barocchisti - Arie per tenore - Concerto ripieno RV 110 - Allegro.wav
Peak level 77.3 % Extraction speed 5.6 X Track quality 100.0 % Test CRC 982486F2 Copy CRC 982486F2 Accurately ripped (confidence 5) [73663F98] (AR v2) Copy OK
Track 7
Filename C:\EAC\Diego Fasolis & I Barocchisti - Arie per tenore - Concerto ripieno RV 110 - Largo.wav
Peak level 34.1 % Extraction speed 5.5 X Track quality 100.0 % Test CRC 10BB9F61 Copy CRC 10BB9F61 Accurately ripped (confidence 5) [85B36ED5] (AR v2) Copy OK
Track 8
Filename C:\EAC\Diego Fasolis & I Barocchisti - Arie per tenore - Concerto ripieno RV 110 - Allegro.wav
Peak level 58.7 % Extraction speed 5.4 X Track quality 100.0 % Test CRC 7B181B49 Copy CRC 7B181B49 Accurately ripped (confidence 5) [28B5445E] (AR v2) Copy OK
Track 9
Filename C:\EAC\Diego Fasolis & I Barocchisti - Arie per tenore - Col furor ch’in petto io serbo (L’incoronazione di Dario).wav
Peak level 93.7 % Extraction speed 6.7 X Track quality 100.0 % Test CRC 8032FCB5 Copy CRC 8032FCB5 Accurately ripped (confidence 5) [A6DDBF77] (AR v2) Copy OK
Track 10
Filename C:\EAC\Diego Fasolis & I Barocchisti - Arie per tenore - Cessa tiranno amor (L’incoronazione di Dario).wav
Peak level 48.6 % Extraction speed 5.4 X Track quality 99.9 % Test CRC FF435283 Copy CRC FF435283 Accurately ripped (confidence 5) [A39C8A2F] (AR v2) Copy OK
Track 11
Filename C:\EAC\Diego Fasolis & I Barocchisti - Arie per tenore - La tiranna avversa sorte (b) (Arsilda regina di Ponto).wav
Peak level 80.2 % Extraction speed 6.0 X Track quality 99.9 % Test CRC FBF1199D Copy CRC FBF1199D Accurately ripped (confidence 5) [73101311] (AR v2) Copy OK
Track 12
Filename C:\EAC\Diego Fasolis & I Barocchisti - Arie per tenore - Cada pur sul capo audace (Artabano re de’ Parti).wav
Peak level 91.3 % Extraction speed 7.7 X Track quality 100.0 % Test CRC B34D8669 Copy CRC B34D8669 Accurately ripped (confidence 5) [04D7004F] (AR v2) Copy OK
Track 13
Filename C:\EAC\Diego Fasolis & I Barocchisti - Arie per tenore - Va superbo quel vassallo (Arsilda regina di Ponto).wav
Peak level 85.3 % Extraction speed 7.8 X Track quality 100.0 % Test CRC 4743D546 Copy CRC 4743D546 Accurately ripped (confidence 5) [37E4108F] (AR v2) Copy OK
Track 14
Filename C:\EAC\Diego Fasolis & I Barocchisti - Arie per tenore - Fido amante frammento strumentale (L’incoronazione di Dario).wav
Peak level 31.7 % Extraction speed 6.1 X Track quality 100.0 % Test CRC 3F99326F Copy CRC 3F99326F Accurately ripped (confidence 5) [662A1327] (AR v2) Copy OK
Track 15
Filename C:\EAC\Diego Fasolis & I Barocchisti - Arie per tenore - Il figlio, il reo (Tito Manlio).wav
Peak level 76.3 % Extraction speed 8.4 X Track quality 100.0 % Test CRC 21FD930A Copy CRC 21FD930A Accurately ripped (confidence 5) [DCA96F7E] (AR v2) Copy OK
Track 16
Filename C:\EAC\Diego Fasolis & I Barocchisti - Arie per tenore - Già lasciò la nobil salma (Tito Manlio).wav
Peak level 72.7 % Extraction speed 8.3 X Track quality 100.0 % Test CRC 505E2442 Copy CRC 505E2442 Accurately ripped (confidence 5) [F27467ED] (AR v2) Copy OK
Track 17
Filename C:\EAC\Diego Fasolis & I Barocchisti - Arie per tenore - Vinta a piè d’un dolce affetto (b) (La verità in cimento).wav
Peak level 73.6 % Extraction speed 8.6 X Track quality 100.0 % Test CRC 17A3259A Copy CRC 17A3259A Accurately ripped (confidence 5) [2EC2541C] (AR v2) Copy OK
Track 18
Filename C:\EAC\Diego Fasolis & I Barocchisti - Arie per tenore - Accompagnato Nume tu che di Tempe (Dorilla in Tempe).wav
Peak level 38.9 % Extraction speed 6.1 X Track quality 100.0 % Test CRC 9CC4821F Copy CRC 9CC4821F Accurately ripped (confidence 5) [EF24600A] (AR v2) Copy OK
Track 19
Filename C:\EAC\Diego Fasolis & I Barocchisti - Arie per tenore - Gemiti e lagrime (Dorilla in Tempe).wav
Peak level 98.7 % Extraction speed 7.0 X Track quality 100.0 % Test CRC A57A54D8 Copy CRC A57A54D8 Accurately ripped (confidence 5) [BFDC8741] (AR v2) Copy OK
Track 20
Filename C:\EAC\Diego Fasolis & I Barocchisti - Arie per tenore - Alle minacce di fiera belva (Farnace).wav
Peak level 99.7 % Extraction speed 8.9 X Track quality 100.0 % Test CRC 6992F2A5 Copy CRC 6992F2A5 Accurately ripped (confidence 5) [BF4EBE3A] (AR v2) Copy OK
Track 21
Filename C:\EAC\Diego Fasolis & I Barocchisti - Arie per tenore - Recitativo Andiam Prence, seguiamla (Bajazet).wav
Peak level 38.9 % Extraction speed 3.7 X Track quality 100.0 % Test CRC F0A7316A Copy CRC F0A7316A Accurately ripped (confidence 5) [BC825ED3] (AR v2) Copy OK
Track 22
Filename C:\EAC\Diego Fasolis & I Barocchisti - Arie per tenore - A’ suoi piedi Padre esangue (Bajazet).wav
Peak level 76.1 % Extraction speed 8.5 X Track quality 100.0 % Test CRC 5C21097A Copy CRC 5C21097A Accurately ripped (confidence 5) [24D630D4] (AR v2) Copy OK
Track 23
Filename C:\EAC\Diego Fasolis & I Barocchisti - Arie per tenore - Dell’aura al sussurrar (Dorilla in Tempe).wav
Peak level 98.8 % Extraction speed 7.0 X Track quality 99.9 % Test CRC E917EED8 Copy CRC E917EED8 Accurately ripped (confidence 5) [37BB5B2B] (AR v2) Copy OK
All tracks accurately ripped
No errors occurred
End of status report
==== Log checksum 542A1FF0B9AC723A4F982D796A5A1486485CCA05548AFE88D57169CED95DC8A1 ====

Cue-файлы

REM GENRE ClassicalREM DATE 2010PERFORMER "Diego Fasolis & I Barocchisti"TITLE "Arie per tenore"FILE "01 - La fatal sentenza (Tito Manlio).flac" WAVE TRACK 01 AUDIO TITLE "La fatal sentenza (Tito Manlio)" INDEX 01 00:00:00FILE "02 - La tiranna avversa sorte (a) (Arsilda regina di Ponto).flac" WAVE TRACK 02 AUDIO TITLE "La tiranna avversa sorte (a) (Arsilda regina di Ponto)" INDEX 01 00:00:00FILE "03 - Non sempre folgora (La costanza trionfante).flac" WAVE TRACK 03 AUDIO TITLE "Non sempre folgora (La costanza trionfante)" INDEX 01 00:00:00FILE "04 - Va per selve e sol pien d’ira (Arsilda regina di Ponto).flac" WAVE TRACK 04 AUDIO TITLE "Va per selve e sol pien d’ira (Arsilda regina di Ponto)" INDEX 01 00:00:00FILE "05 - Care pupille (Tigrane).flac" WAVE TRACK 05 AUDIO TITLE "Care pupille (Tigrane)" INDEX 01 00:00:00FILE "06 - Concerto ripieno RV 110 - Allegro.flac" WAVE TRACK 06 AUDIO TITLE "Concerto ripieno RV 110 - Allegro" INDEX 01 00:00:00FILE "07 - Concerto ripieno RV 110 - Largo.flac" WAVE TRACK 07 AUDIO TITLE "Concerto ripieno RV 110 - Largo" INDEX 01 00:00:00FILE "08 - Concerto ripieno RV 110 - Allegro.flac" WAVE TRACK 08 AUDIO TITLE "Concerto ripieno RV 110 - Allegro" INDEX 01 00:00:00FILE "09 - Col furor ch’in petto io serbo (L’incoronazione di Dario).flac" WAVE TRACK 09 AUDIO TITLE "Col furor ch’in petto io serbo (L’incoronazione di Dario)" INDEX 01 00:00:00FILE "10 - Cessa tiranno amor (L’incoronazione di Dario).flac" WAVE TRACK 10 AUDIO TITLE "Cessa tiranno amor (L’incoronazione di Dario)" INDEX 01 00:00:00FILE "11 - La tiranna avversa sorte (b) (Arsilda regina di Ponto).flac" WAVE TRACK 11 AUDIO TITLE "La tiranna avversa sorte (b) (Arsilda regina di Ponto)" INDEX 01 00:00:00FILE "12 - Cada pur sul capo audace (Artabano re de’ Parti).flac" WAVE TRACK 12 AUDIO TITLE "Cada pur sul capo audace (Artabano re de’ Parti)" INDEX 01 00:00:00FILE "13 - Va superbo quel vassallo (Arsilda regina di Ponto).flac" WAVE TRACK 13 AUDIO TITLE "Va superbo quel vassallo (Arsilda regina di Ponto)" INDEX 01 00:00:00FILE "14 - Fido amante frammento strumentale (L’incoronazione di Dario).flac" WAVE TRACK 14 AUDIO TITLE "Fido amante frammento strumentale (L’incoronazione di Dario)" INDEX 01 00:00:00FILE "15 - Il figlio, il reo (Tito Manlio).flac" WAVE TRACK 15 AUDIO TITLE "Il figlio, il reo (Tito Manlio)" INDEX 01 00:00:00FILE "16 - Gia lascio la nobil salma (Tito Manlio).flac" WAVE TRACK 16 AUDIO TITLE "Gia lascio la nobil salma (Tito Manlio)" INDEX 01 00:00:00FILE "17 - Vinta a pie d’un dolce affetto (b) (La verita in cimento).flac" WAVE TRACK 17 AUDIO TITLE "Vinta a pie d’un dolce affetto (b) (La verita in cimento)" INDEX 01 00:00:00FILE "18 - Accompagnato Nume tu che di Tempe (Dorilla in Tempe).flac" WAVE TRACK 18 AUDIO TITLE "Accompagnato Nume tu che di Tempe (Dorilla in Tempe)" INDEX 01 00:00:00FILE "19 - Gemiti e lagrime (Dorilla in Tempe).flac" WAVE TRACK 19 AUDIO TITLE "Gemiti e lagrime (Dorilla in Tempe)" INDEX 01 00:00:00FILE "20 - Alle minacce di fiera belva (Farnace).flac" WAVE TRACK 20 AUDIO TITLE "Alle minacce di fiera belva (Farnace)" INDEX 01 00:00:00FILE "21 - Recitativo Andiam Prence, seguiamla (Bajazet).flac" WAVE TRACK 21 AUDIO TITLE "Recitativo Andiam Prence, seguiamla (Bajazet)" INDEX 01 00:00:00FILE "22 - A’ suoi piedi Padre esangue (Bajazet).flac" WAVE TRACK 22 AUDIO TITLE "A’ suoi piedi Padre esangue (Bajazet)" INDEX 01 00:00:00FILE "23 - Dell’aura al sussurrar (Dorilla in Tempe).flac" WAVE TRACK 23 AUDIO TITLE "Dell’aura al sussurrar (Dorilla in Tempe)" INDEX 01 00:00:00



Показать сообщения:    

Текущее время: 04-Дек 04:58

Часовой пояс: UTC + 3


Вы не можете начинать темы
Вы не можете отвечать на сообщения
Вы не можете редактировать свои сообщения
Вы не можете удалять свои сообщения
Вы не можете голосовать в опросах
Вы не можете прикреплять файлы к сообщениям
Вы не можете скачивать файлы