(Classical, Baroque) Monteverdi - L'incoronazione di Poppea (Rene Jacobs, Concerto Vocale; Borst, Laurens, Larmore, Kohler, Schopper, Lootens, Visse, Homberger) - 1990, FLAC (image+.cue) lossless


 

[Цитировать]

Claudio Monteverdi - L'incoronazione di Poppea (Rene Jacobs, Concerto Vocale)
Жанр: Classical, Baroque
Год издания диска: 1990
Издатель (лейбл): Harmonia Mundi
Номер по каталогу: HMC 901330.32
Аудиокодек: FLAC
Тип рипа: image+.cue
Битрейт аудио: lossless
Продолжительность: CD1: 62’40; CD2: 67’26; CD3: 47’11
Источник: собственный рип
Наличие сканов в содержимом раздачи: да
Треклист:
CD1
01. Sinfonia avanti il Prologo
02. Prologo. Fortuna, Virtù, Amore
03. Atto primo. Scena 1. Ottone
04. Scena 2. Ottone, due Soldati
05. Scena 3. Poppea, Nerone
06. Scena 4. Poppea, Arnalta
07. Scena 5. Ottavia, Nutrice
08. Scena 6. Seneca, Ottavia, Valletto
09. Scene 7 e 8. Seneca, Pallade
10. Scena 9. Nerone, Seneca
11. Scena 10. Poppea, Nerone
CD2
01. Scena 11. Ottone, Poppea
02. Scena 12. Ottone
03. Scena 13. Drusilla, Ottone
04. Atto secondo. Scena 1. Seneca, Mercurio
05. Scena 2. Liberto Capitano, Seneca
06. Scena 3. Seneca e i suoi Famigliari / Scena 4
07. Scena 5. Valletto, Damigella
08. Scena 6. Nerone, Lucano / Scena 7
09. Scena 8. Ottone
10. Scena 9. Ottavia, Ottone
11. Scena 10. Drusilla, Valletto, Nutrice
12. Scena 11. Ottone, Drusilla
13. Scena 12. Poppea, Arnalta
14. Scena 13. Amore
15. Scena 14. Ottone, Amore, Poppea, Arnalta
CD3
01. Atto terzo. Scena 1. Drusilla
02. Scena 2. Arnalta, Littore, Drusilla
03. Scena 3. Arnalta, Nerone, Drusilla, Littore
04. Scena 4. Ottone, Nerone, Drusilla
05. Scena 5. Poppea, Nerone
06. Scena 6. Arnalta
07. Scena 7. Ottavia
08. Scena 8. Nerone, Poppea
09. L’Incoronazione. Consoli e Tribuni, Amore, Amorini, Venere
10. Coro di Amori: Or cantiamo giocondi
11. Duo Poppea, Nerone: Pur ti miro
Исполнители:
Poppea - Danielle Borst
Nerone - Guillemette Laurens
Ottavia - Jennifer Larmore
Ottone - Axel Köhler
Seneca -Michael Schopper
Drusilla - Lena Lootens
Nutrice - Dominique Visse
Arnalta - Christoph Homberger
Lucano / Liberto Capitano - Guy de Mey
Famigliari di Seneca - Dominique Visse, Gerd Türk, Andreas Lebeda
Consolo - Gerd Türk
Tribuno / Littore - Andreas Lebeda
Valletto - Christina Högman
Concerto Vocale
Conductor - René Jacobs

LOG EAC

CD1

Exact Audio Copy V1.0 beta 3 from 29. August 2011
EAC extraction logfile from 23. November 2013, 14:10
Rene Jacobs, Concerto Vocale / Monteverdi - L'Incoronazione di Poppea CD1
Used drive : PIONEER DVD-RW DVR-218L Adapter: 0 ID: 1
Read mode : Secure
Utilize accurate stream : Yes
Defeat audio cache : Yes
Make use of C2 pointers : No
Read offset correction : 6
Overread into Lead-In and Lead-Out : No
Fill up missing offset samples with silence : Yes
Delete leading and trailing silent blocks : No
Null samples used in CRC calculations : Yes
Used interface : Native Win32 interface for Win NT & 2000
Used output format : User Defined Encoder
Selected bitrate : 128 kBit/s
Quality : High
Add ID3 tag : No
Command line compressor : C:\Program Files\Exact Audio Copy\Flac\flac.exe
Additional command line options : -V -8 -T "Date=%year%" -T "Genre=%genre%" %source%
TOC of the extracted CD
Track | Start | Length | Start sector | End sector
---------------------------------------------------------
1 | 0:00.00 | 1:55.15 | 0 | 8639
2 | 1:55.15 | 7:58.00 | 8640 | 44489
3 | 9:53.15 | 7:52.60 | 44490 | 79949
4 | 17:46.00 | 3:23.65 | 79950 | 95239
5 | 21:09.65 | 8:29.45 | 95240 | 133459
6 | 29:39.35 | 5:18.50 | 133460 | 157359
7 | 34:58.10 | 10:26.10 | 157360 | 204319
8 | 45:24.20 | 7:50.10 | 204320 | 239579
9 | 53:14.30 | 4:26.00 | 239580 | 259529
10 | 57:40.30 | 4:10.20 | 259530 | 278299
11 | 61:50.50 | 10:49.45 | 278300 | 327019
Range status and errors
Selected range
Filename C:\Monteverdi - L'Incoronazione di Poppea CD1.wav
Peak level 100.0 %
Extraction speed 2.0 X
Range quality 100.0 %
Test CRC B8A0D420
Copy CRC B8A0D420
Copy OK
No errors occurred
End of status report
==== Log checksum 1F7929FC06487A3947DBDED0CD2B1207AA348ED42B208492A58A71AA9E251DF8 ====

CD2

Exact Audio Copy V1.0 beta 3 from 29. August 2011
EAC extraction logfile from 23. November 2013, 15:34
Rene Jacobs, Concerto Vocale / Monteverdi - L'Incoronazione di Poppea CD2
Used drive : PIONEER DVD-RW DVR-218L Adapter: 0 ID: 1
Read mode : Secure
Utilize accurate stream : Yes
Defeat audio cache : Yes
Make use of C2 pointers : No
Read offset correction : 6
Overread into Lead-In and Lead-Out : No
Fill up missing offset samples with silence : Yes
Delete leading and trailing silent blocks : No
Null samples used in CRC calculations : Yes
Used interface : Native Win32 interface for Win NT & 2000
Used output format : User Defined Encoder
Selected bitrate : 128 kBit/s
Quality : High
Add ID3 tag : No
Command line compressor : C:\Program Files\Exact Audio Copy\Flac\flac.exe
Additional command line options : -V -8 -T "Date=%year%" -T "Genre=%genre%" %source%
TOC of the extracted CD
Track | Start | Length | Start sector | End sector
---------------------------------------------------------
1 | 0:00.00 | 6:46.70 | 0 | 30519
2 | 6:46.70 | 2:20.00 | 30520 | 41019
3 | 9:06.70 | 5:38.20 | 41020 | 66389
4 | 14:45.15 | 6:38.20 | 66390 | 96259
5 | 21:23.35 | 4:20.10 | 96260 | 115769
6 | 25:43.45 | 5:51.65 | 115770 | 142159
7 | 31:35.35 | 6:38.30 | 142160 | 172039
8 | 38:13.65 | 7:35.15 | 172040 | 206179
9 | 45:49.05 | 3:35.65 | 206180 | 222369
10 | 49:24.70 | 4:11.35 | 222370 | 241229
11 | 53:36.30 | 5:05.65 | 241230 | 264169
12 | 58:42.20 | 4:22.40 | 264170 | 283859
13 | 63:04.60 | 6:58.00 | 283860 | 315209
14 | 70:02.60 | 2:41.25 | 315210 | 327309
15 | 72:44.10 | 4:41.45 | 327310 | 348429
Range status and errors
Selected range
Filename C:\Monteverdi - L'Incoronazione di Poppea CD2.wav
Peak level 100.0 %
Extraction speed 2.1 X
Range quality 100.0 %
Test CRC C205F7F2
Copy CRC C205F7F2
Copy OK
No errors occurred
End of status report
==== Log checksum C4BFDF8F0ACCB57240AC35D10C52649A9F66272F30A91702AC48BAFC86492FF5 ====

CD3

Exact Audio Copy V1.0 beta 3 from 29. August 2011
EAC extraction logfile from 23. November 2013, 16:34
Rene Jacobs, Concerto Vocale / Monteverdi - L'Incoronazione di Poppea CD3
Used drive : PIONEER DVD-RW DVR-218L Adapter: 0 ID: 1
Read mode : Secure
Utilize accurate stream : Yes
Defeat audio cache : Yes
Make use of C2 pointers : No
Read offset correction : 6
Overread into Lead-In and Lead-Out : No
Fill up missing offset samples with silence : Yes
Delete leading and trailing silent blocks : No
Null samples used in CRC calculations : Yes
Used interface : Native Win32 interface for Win NT & 2000
Used output format : User Defined Encoder
Selected bitrate : 128 kBit/s
Quality : High
Add ID3 tag : No
Command line compressor : C:\Program Files\Exact Audio Copy\Flac\flac.exe
Additional command line options : -V -8 -T "Date=%year%" -T "Genre=%genre%" %source%
TOC of the extracted CD
Track | Start | Length | Start sector | End sector
---------------------------------------------------------
1 | 0:00.00 | 2:21.45 | 0 | 10619
2 | 2:21.45 | 1:00.10 | 10620 | 15129
3 | 3:21.55 | 3:57.65 | 15130 | 32969
4 | 7:19.45 | 4:38.70 | 32970 | 53889
5 | 11:58.40 | 7:37.55 | 53890 | 88219
6 | 19:36.20 | 4:04.30 | 88220 | 106549
7 | 23:40.50 | 4:21.35 | 106550 | 126159
8 | 28:02.10 | 5:52.00 | 126160 | 152559
9 | 33:54.10 | 7:34.40 | 152560 | 186649
10 | 41:28.50 | 1:23.55 | 186650 | 192929
11 | 42:52.30 | 4:18.50 | 192930 | 212329
Range status and errors
Selected range
Filename C:\Monteverdi - L'Incoronazione di Poppea CD3.wav
Peak level 100.0 %
Extraction speed 1.7 X
Range quality 100.0 %
Test CRC 3DDABCC7
Copy CRC 3DDABCC7
Copy OK
No errors occurred
End of status report
==== Log checksum C11CFC7B412D70DCF5C667C0005991C708EDAA4E140B792FAA3B76D87E89AA96 ====

Содержание индексной карты (.CUE)

CD1

REM GENRE Opera
REM DATE 1990
REM DISCID 8C11080B
REM COMMENT "ExactAudioCopy v1.0b3"
PERFORMER "Rene Jacobs, Concerto Vocale"
TITLE "Monteverdi - L'Incoronazione di Poppea CD1"
FILE "Monteverdi - L'Incoronazione di Poppea CD1.Flac" WAVE
TRACK 01 AUDIO
TITLE "Sinfonia avant il Prologo"
PERFORMER "Rene Jacobs, Concerto Vocale"
INDEX 01 00:00:00
TRACK 02 AUDIO
TITLE "Prologo. Fortuna, Virtu, Amore "
PERFORMER "Rene Jacobs, Concerto Vocale"
INDEX 01 01:55:15
TRACK 03 AUDIO
TITLE "Atto primo. Scena 1. Ottone"
PERFORMER "Rene Jacobs, Concerto Vocale"
INDEX 01 09:53:15
TRACK 04 AUDIO
TITLE "Scena 2. Ottone, due Soldati"
PERFORMER "Rene Jacobs, Concerto Vocale"
INDEX 01 17:46:00
TRACK 05 AUDIO
TITLE "Scena 3. Poppea, Nerone"
PERFORMER "Rene Jacobs, Concerto Vocale"
INDEX 01 21:09:65
TRACK 06 AUDIO
TITLE "Scena 4. Poppea, Arnalta"
PERFORMER "Rene Jacobs, Concerto Vocale"
INDEX 01 29:39:35
TRACK 07 AUDIO
TITLE "Scena 5. Ottavia, Nutrice"
PERFORMER "Rene Jacobs, Concerto Vocale"
INDEX 01 34:58:10
TRACK 08 AUDIO
TITLE "Scena 6. Seneca, Ottavia, Valletto"
PERFORMER "Rene Jacobs, Concerto Vocale"
INDEX 01 45:24:20
TRACK 09 AUDIO
TITLE "Scene 7 e 8. Seneca, Pallade"
PERFORMER "Rene Jacobs, Concerto Vocale"
INDEX 01 53:14:30
TRACK 10 AUDIO
TITLE "Scena 9. Nerone, Seneca"
PERFORMER "Rene Jacobs, Concerto Vocale"
INDEX 01 57:40:30
TRACK 11 AUDIO
TITLE "Scena 10. Poppea, Nerone"
PERFORMER "Rene Jacobs, Concerto Vocale"
INDEX 01 61:50:50

CD2

REM GENRE Opera
REM DATE 1990
REM DISCID F712250F
REM COMMENT "ExactAudioCopy v1.0b3"
PERFORMER "Rene Jacobs, Concerto Vocale"
TITLE "Monteverdi - L'Incoronazione di Poppea CD2"
FILE "Monteverdi - L'Incoronazione di Poppea CD2.Flac" WAVE
TRACK 01 AUDIO
TITLE "Scena 11. Ottone, Poppea"
PERFORMER "Rene Jacobs, Concerto Vocale"
INDEX 01 00:00:00
TRACK 02 AUDIO
TITLE "Scena 12. Ottone"
PERFORMER "Rene Jacobs, Concerto Vocale"
INDEX 01 06:46:70
TRACK 03 AUDIO
TITLE "Scena 13. Drusilla, Ottone"
PERFORMER "Rene Jacobs, Concerto Vocale"
INDEX 01 09:06:70
TRACK 04 AUDIO
TITLE "Atto secondo. Scena 1. Seneca, Mercurio"
PERFORMER "Rene Jacobs, Concerto Vocale"
INDEX 01 14:45:15
TRACK 05 AUDIO
TITLE "Scena 2. Liberto Capitano, Seneca"
PERFORMER "Rene Jacobs, Concerto Vocale"
INDEX 01 21:23:35
TRACK 06 AUDIO
TITLE "Scena 3. Seneca e i suoi Famigliari / Scena 4"
PERFORMER "Rene Jacobs, Concerto Vocale"
INDEX 01 25:43:45
TRACK 07 AUDIO
TITLE "Scena 5. Valletto, Damigella"
PERFORMER "Rene Jacobs, Concerto Vocale"
INDEX 01 31:35:35
TRACK 08 AUDIO
TITLE "Scena 6. Nerone, Lucano / Scena 7"
PERFORMER "Rene Jacobs, Concerto Vocale"
INDEX 01 38:13:65
TRACK 09 AUDIO
TITLE "Scena 8. Ottone"
PERFORMER "Rene Jacobs, Concerto Vocale"
INDEX 01 45:49:05
TRACK 10 AUDIO
TITLE "Scena 9. Ottavia, Ottone"
PERFORMER "Rene Jacobs, Concerto Vocale"
INDEX 01 49:24:70
TRACK 11 AUDIO
TITLE "Scena 10. Drusilla, Valletto, Nutrice"
PERFORMER "Rene Jacobs, Concerto Vocale"
INDEX 01 53:36:30
TRACK 12 AUDIO
TITLE "Scena 11. Ottone, Drusilla"
PERFORMER "Rene Jacobs, Concerto Vocale"
INDEX 01 58:42:20
TRACK 13 AUDIO
TITLE "Scena 12. Poppea, Arnalta"
PERFORMER "Rene Jacobs, Concerto Vocale"
INDEX 01 63:04:60
TRACK 14 AUDIO
TITLE "Scena 13. Amore"
PERFORMER "Rene Jacobs, Concerto Vocale"
INDEX 01 70:02:60
TRACK 15 AUDIO
TITLE "Scena 14. Ottone, Amore, Poppea, Arnalta"
PERFORMER "Rene Jacobs, Concerto Vocale"
INDEX 01 72:44:10

CD3

REM GENRE Opera
REM DATE 1990
REM DISCID 7A0B0F0B
REM COMMENT "ExactAudioCopy v1.0b3"
PERFORMER "Rene Jacobs, Concerto Vocale"
TITLE "Monteverdi - L'Incoronazione di Poppea CD3"
FILE "Monteverdi - L'Incoronazione di Poppea CD3.Flac" WAVE
TRACK 01 AUDIO
TITLE "Atto terzo. Scena 1. Drusilla"
PERFORMER "Rene Jacobs, Concerto Vocale"
INDEX 01 00:00:00
TRACK 02 AUDIO
TITLE "Scena 2. Arnalta, Littore, Drusilla"
PERFORMER "Rene Jacobs, Concerto Vocale"
INDEX 01 02:21:45
TRACK 03 AUDIO
TITLE "Scena 3. Arnalta, Nerone, Drusilla, Littore"
PERFORMER "Rene Jacobs, Concerto Vocale"
INDEX 01 03:21:55
TRACK 04 AUDIO
TITLE "Scena 4. Ottone, Nerone, Drusilla"
PERFORMER "Rene Jacobs, Concerto Vocale"
INDEX 01 07:19:45
TRACK 05 AUDIO
TITLE "Scena 5. Poppea, Nerone"
PERFORMER "Rene Jacobs, Concerto Vocale"
INDEX 01 11:58:40
TRACK 06 AUDIO
TITLE "Scena 6. Arnalta"
PERFORMER "Rene Jacobs, Concerto Vocale"
INDEX 01 19:36:20
TRACK 07 AUDIO
TITLE "Scena 7. Ottavia"
PERFORMER "Rene Jacobs, Concerto Vocale"
INDEX 01 23:40:50
TRACK 08 AUDIO
TITLE "Scena 8. Nerone, Poppea"
PERFORMER "Rene Jacobs, Concerto Vocale"
INDEX 01 28:02:10
TRACK 09 AUDIO
TITLE "L’Incoronazione. Consoli e Tribuni, Amore, Amorini, Venere"
PERFORMER "Rene Jacobs, Concerto Vocale"
INDEX 01 33:54:10
TRACK 10 AUDIO
TITLE "Coro di Amori: Or cantiamo giocondi"
PERFORMER "Rene Jacobs, Concerto Vocale"
INDEX 01 41:28:50
TRACK 11 AUDIO
TITLE "Duo Poppea, Nerone: Pur ti miro"
PERFORMER "Rene Jacobs, Concerto Vocale"
INDEX 01 42:52:30
Доп. информация: Кла́удио (Джова́нни Анто́нио) Монтеве́рди (итал. Cláudio (Giovánni António) Montevérdi; 15 мая 1567 (крещен в этот день), Кремона — 29 ноября 1643, Венеция) — итальянский композитор.
Творчество Монтеверди, во многом новаторское, в истории музыки знаменует переход от эпохи Возрождения к эпохе барокко. Работал во многих жанрах светской и церковной музыки. Наиболее примечательны его мадригалы и оперы, в том числе опера Орфей, которая исполняется и в наши дни. (Вики)
mp3



Показать сообщения:    

Текущее время: 07-Дек 15:28

Часовой пояс: UTC + 3


Вы не можете начинать темы
Вы не можете отвечать на сообщения
Вы не можете редактировать свои сообщения
Вы не можете удалять свои сообщения
Вы не можете голосовать в опросах
Вы не можете прикреплять файлы к сообщениям
Вы не можете скачивать файлы