(Classical, Baroque) Lully - Atys (William Christie, Les Arts Florissants; Mey, Bona, Mellon, Semellaz, Laurens, Rim, Gardeil, Ragon, Fouchecourt, Deletre, Laplenie, Maciejewski, Deletre, Zanetti) - 2009, FLAC (image+.cue) lossless


 

[Цитировать]

Lully - Atys (William Christie, Les Arts Florissants; Mey, Bona, Mellon, Semellaz, Laurens, Rim, Gardeil, Ragon, Fouchecourt, Deletre, Laplenie, Maciejewski, Deletre, Zanetti)
Жанр: Classical, Baroque
Год издания диска: 2009
Издатель (лейбл): Harmonia Mundi
Номер по каталогу: HMC 901257.59
Аудиокодек: FLAC
Тип рипа: image+.cue
Битрейт аудио: lossless
Продолжительность: CD1:54’29; CD2:60’25; CD3:55’34
Источник: собственный рип
Наличие сканов в содержимом раздачи: да
Исполнители:
Atys - Guy de Mey
Idas - Jacques Bona
Iris / Sangaride - Agnès Mellon
Doris - Françoise Semellaz
Cybèle - Guillemette Laurens
Mélisse - Noémi Rime
Célénus - Jean-François Gardeil
Le Sommeil - Gilles Ragon
Morphée - Jean-Paul Fouchécourt
Le Temps / Phobétor - Bernard Deletré
Phantase - Michel Laplénie
Un Songe funeste - Stephan Maciejewski
Sangar - Bernard Deletré
Flore - Monique Zanetti
Zéphirs - Jean-Paul Fouchécourt, Gilles Ragon
Melpomène - Arlette Steyer
Trio - Isabelle Desrochers, Jean-Paul Fouchécourt, Véronique Gens
Les Arts Florissants
Conductor - William Christie

Треклист

CD 1

01. Prologue. Ouverture
02. Le Temps: En vain, j’ai respecté
03. Air pour les Nymphes de Flore
04. Le Temps: La saison des frimats
05. Air pour la Suite de Flore (Gavotte)
06. Prélude pour Melpomène
07. Air pour la Suite de Melpomène
08. Ritournelle
09. Menuet
10. Reprise de l’Ouverture
11. Acte I. Scène 1. Ritournelle. Scène 2. Idas
12. Idas: Atys, ne feignez plus
13. Scène 3. Sangaride et Doris: Allons, allons, accourez tous
14. Scène 4. Sangaride: Atys est trop heureux
15. Sangaride et Doris: Un amour malheureux
16. Scène 5. Atys: On voit dans ces campagnes. Scène 6. Atys
17. Atys et Sangaride: Si l’hymen unissait
18. Scène 7. Atys: Mais déjà de ce mont sacré
19. Entrée de Phrygiens
20. Second Air des Phrygiens
21. Scène 8. Prélude
22. Cybèle: Venez tous dans mon Temple

CD 2

01. Acte II. Scène 1. Ritournelle. Atys: Qu’un indifférent est heureux
02. Scène 2. Prélude
03. Cybèle: Je veux joindre
04. Scène 3. Cybèle: Tu t’étonnes, Mélisse
05. Cybèle: Que les plus doux Zéphyrs. Scène 4. Choeur des Peuples et des Zéphyrs
06. Entrée des Nations
07. Entrée des Zéphyrs
08. Choeur des Nations: Que devant vous
09. Atys: Indigne que je suis
10. Reprise du Choeur des Nations: Que devant nous
11. Reprise de l’Air des Zéphyrs
12. Acte III. Scène 1. Ritournelle. Atys: Que servent les faveurs
13. Scène 2. Idas: Peut-on ici parler
14. Atys: Le plus juste parti. Scène 3
15. Scène 4. Prélude. Le Sommeil: Dormons, dormons tous
16. Prélude
17. Morphée: Écoute, écoute, Atys
18. Phantase: Que l’Amour a d’attraits
19. Phobetor: Goûte en paix
20. Phantase: Trop heureux un amant
21. Un Songe Funeste: Garde-toi d’offenser
22. Choeur des Songes Funestes: L’amour qu’on outrage
23. Scène 5. Atys: Venez à mon secours. Scène 6. Atys
24. Scène 7. Cybèle: Qu’Atys dans ses respects
25. Scène 8. Ritournelle. Cybèle: Espoir si cher et si doux

CD 3

01. Acte IV. Scène 1. Doris: Quoi! Vous pleurez!
02. Scène 2. Prélude
03. Célénus: Belle nymphe. Scène 3
04. Scène 4. Ritournelle. Atys: Qu’il sait peu son malheur
05. Atys, Sangaride: Je jure / Je promets
06. Scène 5. Prélude. Le Dieu du Fleuve Sangar: O vous qui prenez part
07. Le Dieu du Fleuve Sangar: Que l’on chante
08. Gavotte, Choeur de Dieux de Fleuves et de Divinités de Fontaines et de Ruisseaux
09. Menuet, Choeur de Dieux & Divinités: L’hymen seul ne saurait plaire
10. Menuet, Choeur de Dieux & Divinités: Une constance extrême
11. Gavotte, Choeur de Dieux & Divinités: Un grand calme
12. Scène 6. Choeur de Dieux & Divinités: Venez former
13. Acte V. Scène 1. Ritournelle
14. Célénus: Vous m’ôtez Sangaride
15. Scène 2. Cybèle et Célénus: Venez vous livrer
16. Cybèle: Toi qui porte partout
17. Scène 3. Atys: Ciel!
18. Choeur des Phrygiens: Atys lui-même. Scène 4
19. Atys: Quoi ! Sangaride est morte!
20. Scène 5. Cybèle: Je commence à trouver
21. Scène 6. Idas: Il s’est percé le sein
22. Ritournelle
23. Cybèle: Venez, furieux Corybantes. Scène dernière
24. Entrée des Nymphes
25. Première Entrée des Corybantes
26. Seconde Entrée
27. Cybèle et Choeur des Divinités des Bois et des Eaux: Que le malheur d’Atys

LOG EAC

CD1

Exact Audio Copy V1.0 beta 3 from 29. August 2011
EAC extraction logfile from 26. November 2013, 15:45
William Christie - Les Arts Florissants / Lully - Atys CD1
Used drive : PIONEER DVD-RW DVR-218L Adapter: 0 ID: 1
Read mode : Secure
Utilize accurate stream : Yes
Defeat audio cache : Yes
Make use of C2 pointers : No
Read offset correction : 6
Overread into Lead-In and Lead-Out : No
Fill up missing offset samples with silence : Yes
Delete leading and trailing silent blocks : No
Null samples used in CRC calculations : Yes
Used interface : Native Win32 interface for Win NT & 2000
Used output format : User Defined Encoder
Selected bitrate : 128 kBit/s
Quality : High
Add ID3 tag : No
Command line compressor : C:\Program Files\Exact Audio Copy\Flac\flac.exe
Additional command line options : -V -8 -T "Date=%year%" -T "Genre=%genre%" %source%
TOC of the extracted CD
Track | Start | Length | Start sector | End sector
---------------------------------------------------------
1 | 0:00.00 | 1:49.45 | 0 | 8219
2 | 1:49.45 | 1:48.11 | 8220 | 16330
3 | 3:37.56 | 0:49.21 | 16331 | 20026
4 | 4:27.02 | 3:22.03 | 20027 | 35179
5 | 7:49.05 | 2:12.52 | 35180 | 45131
6 | 10:01.57 | 1:27.51 | 45132 | 51707
7 | 11:29.33 | 1:24.43 | 51708 | 58050
8 | 12:54.01 | 2:48.19 | 58051 | 70669
9 | 15:42.20 | 0:56.52 | 70670 | 74921
10 | 16:38.72 | 1:54.39 | 74922 | 83510
11 | 18:33.36 | 4:01.21 | 83511 | 101606
12 | 22:34.57 | 2:50.05 | 101607 | 114361
13 | 25:24.62 | 5:36.40 | 114362 | 139601
14 | 31:01.27 | 5:21.39 | 139602 | 163715
15 | 36:22.66 | 1:01.44 | 163716 | 168334
16 | 37:24.35 | 4:33.00 | 168335 | 188809
17 | 41:57.35 | 1:48.69 | 188810 | 196978
18 | 43:46.29 | 5:14.09 | 196979 | 220537
19 | 49:00.38 | 1:12.20 | 220538 | 225957
20 | 50:12.58 | 0:29.68 | 225958 | 228200
21 | 50:42.51 | 0:43.30 | 228201 | 231455
22 | 51:26.06 | 3:03.09 | 231456 | 245189
Range status and errors
Selected range
Filename C:\Lully - Atys CD1.wav
Peak level 96.9 %
Extraction speed 1.8 X
Range quality 99.9 %
Test CRC 57CF7C1B
Copy CRC 57CF7C1B
Copy OK
No errors occurred
End of status report
==== Log checksum 51E2879983B6991A5D85543B75D3B17C9B0CEC14C544F1BF0FBAC028183331AB ====

CD2

Exact Audio Copy V1.0 beta 3 from 29. August 2011
EAC extraction logfile from 26. November 2013, 17:06
William Christie - Les Arts Florissants / Lully - Atys CD2
Used drive : PIONEER DVD-RW DVR-218L Adapter: 0 ID: 1
Read mode : Secure
Utilize accurate stream : Yes
Defeat audio cache : Yes
Make use of C2 pointers : No
Read offset correction : 6
Overread into Lead-In and Lead-Out : No
Fill up missing offset samples with silence : Yes
Delete leading and trailing silent blocks : No
Null samples used in CRC calculations : Yes
Used interface : Native Win32 interface for Win NT & 2000
Used output format : User Defined Encoder
Selected bitrate : 128 kBit/s
Quality : High
Add ID3 tag : No
Command line compressor : C:\Program Files\Exact Audio Copy\Flac\flac.exe
Additional command line options : -V -8 -T "Date=%year%" -T "Genre=%genre%" %source%
TOC of the extracted CD
Track | Start | Length | Start sector | End sector
---------------------------------------------------------
1 | 0:00.00 | 6:15.18 | 0 | 28142
2 | 6:15.18 | 0:40.02 | 28143 | 31144
3 | 6:55.20 | 3:16.55 | 31145 | 45899
4 | 10:12.00 | 4:53.53 | 45900 | 67927
5 | 15:05.53 | 2:19.06 | 67928 | 78358
6 | 17:24.59 | 0:43.53 | 78359 | 81636
7 | 18:08.37 | 1:08.54 | 81637 | 86790
8 | 19:17.16 | 0:27.49 | 86791 | 88864
9 | 19:44.65 | 1:05.02 | 88865 | 93741
10 | 20:49.67 | 0:27.58 | 93742 | 95824
11 | 21:17.50 | 1:15.34 | 95825 | 101483
12 | 22:33.09 | 2:14.54 | 101484 | 111587
13 | 24:47.63 | 2:33.62 | 111588 | 123124
14 | 27:21.50 | 2:25.04 | 123125 | 134003
15 | 29:46.54 | 7:31.55 | 134004 | 167883
16 | 37:18.34 | 2:24.60 | 167884 | 178743
17 | 39:43.19 | 1:01.38 | 178744 | 183356
18 | 40:44.57 | 1:32.39 | 183357 | 190295
19 | 42:17.21 | 1:08.11 | 190296 | 195406
20 | 43:25.32 | 1:33.55 | 195407 | 202436
21 | 44:59.12 | 1:55.51 | 202437 | 211112
22 | 46:54.63 | 1:39.50 | 211113 | 218587
23 | 48:34.38 | 4:52.20 | 218588 | 240507
24 | 53:26.58 | 2:58.60 | 240508 | 253917
25 | 56:25.43 | 3:59.13 | 253918 | 271855
Range status and errors
Selected range
Filename C:\Lully - Atys CD2.wav
Peak level 86.3 %
Extraction speed 1.8 X
Range quality 100.0 %
Test CRC F3E9DD57
Copy CRC F3E9DD57
Copy OK
No errors occurred
End of status report
==== Log checksum BCFA47F8680EBE322B0A77B385E71FA83033DD3CB819948E59879FC584DD08DE ====

CD3

Exact Audio Copy V1.0 beta 3 from 29. August 2011
EAC extraction logfile from 27. November 2013, 11:47
William Christie - Les Arts Florissants / Lully - Atys CD3
Used drive : PIONEER DVD-RW DVR-218L Adapter: 0 ID: 1
Read mode : Secure
Utilize accurate stream : Yes
Defeat audio cache : Yes
Make use of C2 pointers : No
Read offset correction : 6
Overread into Lead-In and Lead-Out : No
Fill up missing offset samples with silence : Yes
Delete leading and trailing silent blocks : No
Null samples used in CRC calculations : Yes
Used interface : Native Win32 interface for Win NT & 2000
Used output format : User Defined Encoder
Selected bitrate : 128 kBit/s
Quality : High
Add ID3 tag : No
Command line compressor : C:\Program Files\Exact Audio Copy\Flac\flac.exe
Additional command line options : -V -8 -T "Date=%year%" -T "Genre=%genre%" %source%
TOC of the extracted CD
Track | Start | Length | Start sector | End sector
---------------------------------------------------------
1 | 0:00.00 | 6:27.28 | 0 | 29052
2 | 6:27.28 | 0:38.36 | 29053 | 31938
3 | 7:05.64 | 2:46.47 | 31939 | 44435
4 | 9:52.36 | 3:41.56 | 44436 | 61066
5 | 13:34.17 | 1:57.13 | 61067 | 69854
6 | 15:31.30 | 1:35.54 | 69855 | 77033
7 | 17:07.09 | 1:36.59 | 77034 | 84292
8 | 18:43.68 | 1:32.03 | 84293 | 91195
9 | 20:15.71 | 1:17.57 | 91196 | 97027
10 | 21:33.53 | 1:01.20 | 97028 | 101622
11 | 22:34.73 | 0:50.40 | 101623 | 105412
12 | 23:25.38 | 1:48.55 | 105413 | 113567
13 | 25:14.18 | 0:37.17 | 113568 | 116359
14 | 25:51.35 | 2:53.10 | 116360 | 129344
15 | 28:44.45 | 1:45.07 | 129345 | 137226
16 | 30:29.52 | 0:43.48 | 137227 | 140499
17 | 31:13.25 | 1:40.69 | 140500 | 148068
18 | 32:54.19 | 3:16.20 | 148069 | 162788
19 | 36:10.39 | 2:45.49 | 162789 | 175212
20 | 38:56.13 | 1:31.67 | 175213 | 182104
21 | 40:28.05 | 3:00.59 | 182105 | 195663
22 | 43:28.64 | 1:04.58 | 195664 | 200521
23 | 44:33.47 | 5:44.02 | 200522 | 226323
24 | 50:17.49 | 1:10.27 | 226324 | 231600
25 | 51:28.01 | 0:33.65 | 231601 | 234140
26 | 52:01.66 | 1:05.60 | 234141 | 239075
27 | 53:07.51 | 2:26.05 | 239076 | 250030
Range status and errors
Selected range
Filename C:\Lully - Atys CD3.wav
Peak level 96.4 %
Extraction speed 1.8 X
Range quality 100.0 %
Test CRC B70F9444
Copy CRC B70F9444
Copy OK
No errors occurred
End of status report
==== Log checksum 72FC7F503CD0D73EF19B353EC907FD9484DFDDD6AC00CE539B5819EA99D963BD ====

Содержание индексной карты (.CUE)

CD1

REM GENRE Opera
REM DATE 1987
REM DISCID 1C0CC516
REM COMMENT "ExactAudioCopy v1.0b3"
PERFORMER "William Christie - Les Arts Florissants"
TITLE "Lully - Atys CD1"
FILE "Lully - Atys CD1.Flac" WAVE
TRACK 01 AUDIO
TITLE "Prologue. Ouverture"
PERFORMER "William Christie - Les Arts Florissants"
INDEX 01 00:00:00
TRACK 02 AUDIO
TITLE "Le Temps: En vain, j'ai respecte"
PERFORMER "William Christie - Les Arts Florissants"
INDEX 01 01:49:45
TRACK 03 AUDIO
TITLE "Air pour les Nymphes de Flore"
PERFORMER "William Christie - Les Arts Florissants"
INDEX 01 03:37:56
TRACK 04 AUDIO
TITLE "Le Temps: La saison des frimats"
PERFORMER "William Christie - Les Arts Florissants"
INDEX 01 04:27:02
TRACK 05 AUDIO
TITLE "Air pour la Suite de Flore (Gavotte)"
PERFORMER "William Christie - Les Arts Florissants"
INDEX 01 07:49:05
TRACK 06 AUDIO
TITLE "Prelude pour Melpomene"
PERFORMER "William Christie - Les Arts Florissants"
INDEX 01 10:01:57
TRACK 07 AUDIO
TITLE "Air pour la Suite de Melpomene"
PERFORMER "William Christie - Les Arts Florissants"
INDEX 01 11:29:33
TRACK 08 AUDIO
TITLE "Ritournelle"
PERFORMER "William Christie - Les Arts Florissants"
INDEX 01 12:54:01
TRACK 09 AUDIO
TITLE "Menueet"
PERFORMER "William Christie - Les Arts Florissants"
INDEX 01 15:42:20
TRACK 10 AUDIO
TITLE "Reprise de l'Ouverture"
PERFORMER "William Christie - Les Arts Florissants"
INDEX 01 16:38:72
TRACK 11 AUDIO
TITLE "Acte I. Scene 1. Ritournelle. Scene 2. Idas"
PERFORMER "William Christie - Les Arts Florissants"
INDEX 01 18:33:36
TRACK 12 AUDIO
TITLE "Idas: Atys, ne feignez plus"
PERFORMER "William Christie - Les Arts Florissants"
INDEX 01 22:34:57
TRACK 13 AUDIO
TITLE "Scene 3. Sangaride et Doris: Allons, allons, accourez tous"
PERFORMER "William Christie - Les Arts Florissants"
INDEX 01 25:24:62
TRACK 14 AUDIO
TITLE "Scene 4. Sangaride: Atys est trop heureux"
PERFORMER "William Christie - Les Arts Florissants"
INDEX 01 31:01:27
TRACK 15 AUDIO
TITLE "Sangaride et Doris: Un amour malheureux"
PERFORMER "William Christie - Les Arts Florissants"
INDEX 01 36:22:66
TRACK 16 AUDIO
TITLE "Scene 5. Atys: On voit dans ces campagnes. Scene 6. Atys"
PERFORMER "William Christie - Les Arts Florissants"
INDEX 01 37:24:35
TRACK 17 AUDIO
TITLE "Atys et Sangaride: Si l’hymen unissait"
PERFORMER "William Christie - Les Arts Florissants"
INDEX 01 41:57:35
TRACK 18 AUDIO
TITLE "Scene 7. Atys: Mais deja de ce mont sacre"
PERFORMER "William Christie - Les Arts Florissants"
INDEX 01 43:46:29
TRACK 19 AUDIO
TITLE "Entree de Phrygiens"
PERFORMER "William Christie - Les Arts Florissants"
INDEX 01 49:00:38
TRACK 20 AUDIO
TITLE "Second Air des Phrygiens"
PERFORMER "William Christie - Les Arts Florissants"
INDEX 01 50:12:58
TRACK 21 AUDIO
TITLE "Scene 8. Prelude"
PERFORMER "William Christie - Les Arts Florissants"
INDEX 01 50:42:51
TRACK 22 AUDIO
TITLE "Cybele: Venez tous dans mon Temple"
PERFORMER "William Christie - Les Arts Florissants"
INDEX 01 51:26:06

CD2

REM GENRE Opera
REM DATE 1987
REM DISCID 710E2819
REM COMMENT "ExactAudioCopy v1.0b3"
PERFORMER "William Christie - Les Arts Florissants"
TITLE "Lully - Atys CD2"
FILE "Lully - Atys CD2.Flac" WAVE
TRACK 01 AUDIO
TITLE "Acte II. Scene 1. Ritournelle. Atys: Qu’un indifferent est heureux"
PERFORMER "William Christie - Les Arts Florissants"
INDEX 01 00:00:00
TRACK 02 AUDIO
TITLE "Scene 2. Prelude"
PERFORMER "William Christie - Les Arts Florissants"
INDEX 01 06:15:18
TRACK 03 AUDIO
TITLE "Cybele: Je veux joindre"
PERFORMER "William Christie - Les Arts Florissants"
INDEX 01 06:55:20
TRACK 04 AUDIO
TITLE "Scene 3. Cybele: Tu t'etonnes, Melisse"
PERFORMER "William Christie - Les Arts Florissants"
INDEX 01 10:12:00
TRACK 05 AUDIO
TITLE "Cybele: Que les plus doux Zephyrs. Scene 4. Choeur des Peuples et des Zephyrs"
PERFORMER "William Christie - Les Arts Florissants"
INDEX 01 15:05:53
TRACK 06 AUDIO
TITLE "Entree des Nations"
PERFORMER "William Christie - Les Arts Florissants"
INDEX 01 17:24:59
TRACK 07 AUDIO
TITLE "Entree des Zephyrs"
PERFORMER "William Christie - Les Arts Florissants"
INDEX 01 18:08:37
TRACK 08 AUDIO
TITLE "Choeur des Nations: Que devant vous"
PERFORMER "William Christie - Les Arts Florissants"
INDEX 01 19:17:16
TRACK 09 AUDIO
TITLE "Atys: Indigne que je suis"
PERFORMER "William Christie - Les Arts Florissants"
INDEX 01 19:44:65
TRACK 10 AUDIO
TITLE "Reprise du Choeur des Nations: Que devant nous"
PERFORMER "William Christie - Les Arts Florissants"
INDEX 01 20:49:67
TRACK 11 AUDIO
TITLE "Reprise de l'Air des Zephyrs"
PERFORMER "William Christie - Les Arts Florissants"
INDEX 01 21:17:50
TRACK 12 AUDIO
TITLE "Acte III. Scene 1. Ritournelle. Atys: Que servent les faveurs "
PERFORMER "William Christie - Les Arts Florissants"
INDEX 01 22:33:09
TRACK 13 AUDIO
TITLE "Scene 2. Idas: Peut-on ici parler"
PERFORMER "William Christie - Les Arts Florissants"
INDEX 01 24:47:63
TRACK 14 AUDIO
TITLE "Atys: Le plus juste parti. Scene 3"
PERFORMER "William Christie - Les Arts Florissants"
INDEX 01 27:21:50
TRACK 15 AUDIO
TITLE "Scene 4. Prelude. Le Sommeil: Dormons, dormons tous"
PERFORMER "William Christie - Les Arts Florissants"
INDEX 01 29:46:54
TRACK 16 AUDIO
TITLE "Prelude"
PERFORMER "William Christie - Les Arts Florissants"
INDEX 01 37:18:34
TRACK 17 AUDIO
TITLE "Morphee: Ecoute, ecoute, Atys"
PERFORMER "William Christie - Les Arts Florissants"
INDEX 01 39:43:19
TRACK 18 AUDIO
TITLE "Phantase: Que l’Amour a d’attraits"
PERFORMER "William Christie - Les Arts Florissants"
INDEX 01 40:44:57
TRACK 19 AUDIO
TITLE "Phobetor: Goute en paix"
PERFORMER "William Christie - Les Arts Florissants"
INDEX 01 42:17:21
TRACK 20 AUDIO
TITLE "Phantase: Trop heureux un amant"
PERFORMER "William Christie - Les Arts Florissants"
INDEX 01 43:25:32
TRACK 21 AUDIO
TITLE "Un Songe funeste: Garde-toi d'offenser"
PERFORMER "William Christie - Les Arts Florissants"
INDEX 01 44:59:12
TRACK 22 AUDIO
TITLE "Choeur des Songes Funestes: L’amour qu’on outrage"
PERFORMER "William Christie - Les Arts Florissants"
INDEX 01 46:54:63
TRACK 23 AUDIO
TITLE "Scene 5. Atys: Venez a mon secours. Scene 6. Atys"
PERFORMER "William Christie - Les Arts Florissants"
INDEX 01 48:34:38
TRACK 24 AUDIO
TITLE "Scene 7. Cybele: Qu’Atys dans ses respects"
PERFORMER "William Christie - Les Arts Florissants"
INDEX 01 53:26:58
TRACK 25 AUDIO
TITLE "Scene 8. Ritournelle. Cybele: Espoir si cher et si doux"
PERFORMER "William Christie - Les Arts Florissants"
INDEX 01 56:25:43

CD3

REM GENRE Opera
REM DATE 1987
REM DISCID 7D0D051B
REM COMMENT "ExactAudioCopy v1.0b3"
PERFORMER "William Christie - Les Arts Florissants"
TITLE "Lully - Atys CD3"
FILE "Lully - Atys CD3.Flac" WAVE
TRACK 01 AUDIO
TITLE "Acte IV. Scene 1. Doris: Quoi! Vous pleurez!"
PERFORMER "William Christie - Les Arts Florissants"
INDEX 01 00:00:00
TRACK 02 AUDIO
TITLE "Scene 2. Prelude"
PERFORMER "William Christie - Les Arts Florissants"
INDEX 01 06:27:28
TRACK 03 AUDIO
TITLE "Celenus: Belle nymphe. Scene 3"
PERFORMER "William Christie - Les Arts Florissants"
INDEX 01 07:05:64
TRACK 04 AUDIO
TITLE "Scene 4. Ritournelle. Atys: Qu’il sait peu son malheur"
PERFORMER "William Christie - Les Arts Florissants"
INDEX 01 09:52:36
TRACK 05 AUDIO
TITLE "Atys, Sangaride: Je jure / Je promets"
PERFORMER "William Christie - Les Arts Florissants"
INDEX 01 13:34:17
TRACK 06 AUDIO
TITLE "Scene 5. Prelude. Le Dieu du Fleuve Sangar: O vous qui prenez part"
PERFORMER "William Christie - Les Arts Florissants"
INDEX 01 15:31:30
TRACK 07 AUDIO
TITLE "Le Dieu du Fleuve Sangar: Que l'on chante"
PERFORMER "William Christie - Les Arts Florissants"
INDEX 01 17:07:09
TRACK 08 AUDIO
TITLE "Gavotte, Choeur de Dieux de Fleuves et de Divinites de Fontaines et de Ruisseaux"
PERFORMER "William Christie - Les Arts Florissants"
INDEX 01 18:43:68
TRACK 09 AUDIO
TITLE "Menuet, Choeur de Dieux & Divinites: L’hymen seul ne saurait plaire"
PERFORMER "William Christie - Les Arts Florissants"
INDEX 01 20:15:71
TRACK 10 AUDIO
TITLE "Menuet, Choeur de Dieux & Divinites: Une constance extreme"
PERFORMER "William Christie - Les Arts Florissants"
INDEX 01 21:33:53
TRACK 11 AUDIO
TITLE "Gavotte, Choeur de Dieux & Divinites: Un grand calme"
PERFORMER "William Christie - Les Arts Florissants"
INDEX 01 22:34:73
TRACK 12 AUDIO
TITLE "Scene 6. Choeur de Dieux & Divinites: Venez former"
PERFORMER "William Christie - Les Arts Florissants"
INDEX 01 23:25:38
TRACK 13 AUDIO
TITLE "Acte V. Scene 1. Ritournelle"
PERFORMER "William Christie - Les Arts Florissants"
INDEX 01 25:14:18
TRACK 14 AUDIO
TITLE "Celenus: Vous m’otez Sangaride"
PERFORMER "William Christie - Les Arts Florissants"
INDEX 01 25:51:35
TRACK 15 AUDIO
TITLE "Scene 2. Cybele et Celenus: Venez vous livrer"
PERFORMER "William Christie - Les Arts Florissants"
INDEX 01 28:44:45
TRACK 16 AUDIO
TITLE "Cybele: Toi qui porte partout"
PERFORMER "William Christie - Les Arts Florissants"
INDEX 01 30:29:52
TRACK 17 AUDIO
TITLE "Scene 3. Atys: Ciel!"
PERFORMER "William Christie - Les Arts Florissants"
INDEX 01 31:13:25
TRACK 18 AUDIO
TITLE "Choeur des Phrygiens: Atys lui-meme. Scene 4"
PERFORMER "William Christie - Les Arts Florissants"
INDEX 01 32:54:19
TRACK 19 AUDIO
TITLE "Atys: Quoi! Sangaride est morte!"
PERFORMER "William Christie - Les Arts Florissants"
INDEX 01 36:10:39
TRACK 20 AUDIO
TITLE "Scene 5. Cybele: Je commence a trouver"
PERFORMER "William Christie - Les Arts Florissants"
INDEX 01 38:56:13
TRACK 21 AUDIO
TITLE "Scene 6. Idas: Il s'est perce le sein"
PERFORMER "William Christie - Les Arts Florissants"
INDEX 01 40:28:05
TRACK 22 AUDIO
TITLE "Ritournelle"
PERFORMER "William Christie - Les Arts Florissants"
INDEX 01 43:28:64
TRACK 23 AUDIO
TITLE "Cybele: Venez, furieux Corybantes. Scene derniere"
PERFORMER "William Christie - Les Arts Florissants"
INDEX 01 44:33:47
TRACK 24 AUDIO
TITLE "Entree des Nymphes"
PERFORMER "William Christie - Les Arts Florissants"
INDEX 01 50:17:49
TRACK 25 AUDIO
TITLE "Premiere Entree des Corybantes"
PERFORMER "William Christie - Les Arts Florissants"
INDEX 01 51:28:01
TRACK 26 AUDIO
TITLE "Seconde Entree"
PERFORMER "William Christie - Les Arts Florissants"
INDEX 01 52:01:66
TRACK 27 AUDIO
TITLE "Cybele et Choeur: Que le malheur d'Atys"
PERFORMER "William Christie - Les Arts Florissants"
INDEX 01 53:07:51
Доп. информация: Жан-Бати́ст Люлли́ (28 ноября, 1632, Флоренция — 22 марта, 1687, Париж) — французский композитор, скрипач, танцор, дирижёр и педагог итальянского происхождения (Джова́нни Батти́ста Лу́лли, итал. Giovanni Battista Lulli); создатель французской национальной оперы. Крупнейшая фигура музыкальной жизни Франции при Людовике XIV
Родился в семье флорентийского мельника Лоренцо ди Мальдо Лулли (итал. Lulli) и его жены Катерины дель Серо. Рано научился играть на гитаре и скрипке, разыгрывал комические интермедии, превосходно танцевал. Первые уроки музыки получил у францисканского монаха. Во Францию Люлли приехал в марте 1646 года в свите герцога де Гиза, в качестве слуги королевской племянницы, мадемуазель де Монпансье, которая практиковалась с ним в итальянском. Он быстро завоевал доверие хозяев и был приставлен к де Монпансье пажом.
В 1653 году терпит поражение Фронда в борьбе против Людовика XIV, в которой мадемуазель де Монпансье принимала активное участие. Её ожидает ссылка в замок Сен-Фаржо. Люлли, чтобы остаться в Париже, просит освободить его от должности, а спустя три месяца танцует при дворе в «Балете Ночи» Исаака де Бенсерада. Произведя благоприятное впечатление на короля, он вскоре заменяет итальянца Ладзарини в должности композитора инструментальной музыки. (Вики)
mp3



Показать сообщения:    

Текущее время: 03-Дек 07:35

Часовой пояс: UTC + 3


Вы не можете начинать темы
Вы не можете отвечать на сообщения
Вы не можете редактировать свои сообщения
Вы не можете удалять свои сообщения
Вы не можете голосовать в опросах
Вы не можете прикреплять файлы к сообщениям
Вы не можете скачивать файлы