(Classical) Cecilia Bartoli & Bryn Terfel - Duets (Orchestra dell'Accademia Nazionale di Santa Cecilia, Myung-Whun Chung; Mozart, Rossini, Donizetti) - 1999, FLAC (image+.cue) lossless


 

[Цитировать]

Cecilia Bartoli & Bryn Terfel - Duets (Orchestra dell'Accademia Nazionale di Santa Cecilia, Myung-Whun Chung; Mozart, Rossini, Donizetti)
Жанр: Classical
Год издания диска: 1999
Издатель (лейбл): Decca
Номер по каталогу: 458 928-2
Аудиокодек: FLAC
Тип рипа: image+.cue
Битрейт аудио: lossless
Продолжительность: 00:53:21
Источник: скачано из сети
Наличие сканов в содержимом раздачи: да
Треклист:
1 - Mozart - Le nozze di Figaro - Cinque... dieci... venti... 2:40
2 - Cosa stai misurando 0:44
3 - Se a caso Madama la notte ti chiama 2:23
4 - Or bene, ascolta, e taci 2:35
5 - Se vuol ballare, signor Contino 2:21
6 - Un moto di gioia 3:20
7 - Signor... la vostra sposa ha i soliti vapori 0:58
8 - Crudel! perchè finora 2:42
9 - Così fan tutte - Passegiammo anche noi... 2:15
10 - Il cor vi dono 4:24
11 - Don Giovanni - Alfin siam liberati 2:04
12 - Là ci darem la mano 3:16
13 - Die Zauberflöte - Pa-Pa-Pa-Pa-Pa-Pa-Papagena! 2:26
14 - Rossini - Il barbiere di Siviglia - Ebben, signor Figaro? 2:04
15 - Dunque io son... tu non m'inganni? 4:45
16 - L'italiana in Algeri - Ai capricci della sorte 7:16
17 - Donizetti - L'elisir d'amore - Come sen va contento 1:19
18 - Quanto amore! 6:34
Исполнители:
Cecilia Bartoli
Bryn Terfel
Orchestra dell'Accademia Nazionale di Santa Cecilia
Myung-Whun Chung

LOG EAC

Exact Audio Copy V1.0 beta 3 from 29. August 2011
EAC extraction logfile from 28. August 2013, 18:48
Cecilia Bartoli & Bryn Terfel / Duets
Used drive : PIONEER BD-RW BDR-206 Adapter: 0 ID: 2
Read mode : SecureUtilize accurate stream : YesDefeat audio cache : YesMake use of C2 pointers : No
Read offset correction : 667Overread into Lead-In and Lead-Out : NoFill up missing offset samples with silence : YesDelete leading and trailing silent blocks : NoNull samples used in CRC calculations : YesUsed interface : Native Win32 interface for Win NT & 2000
Used output format : User Defined EncoderSelected bitrate : 1024 kBit/sQuality : HighAdd ID3 tag : YesCommand line compressor : C:\Program Files\FLAC\flac.exeAdditional command line options : -5 -T "Artist=%artist%" -T "Title=%title%" -T "Album=%albumtitle%" -T "Date=%year%" -T "Tracknumber=%tracknr%" -T "Genre=%genre%" %source% -o %dest%
TOC of the extracted CD
Track | Start | Length | Start sector | End sector---------------------------------------------------------1 | 0:00.00 | 2:40.28 | 0 | 120272 | 2:40.28 | 0:43.62 | 12028 | 153143 | 3:24.15 | 2:22.66 | 15315 | 260304 | 5:47.06 | 2:34.41 | 26031 | 376215 | 8:21.47 | 2:20.59 | 37622 | 481806 | 10:42.31 | 3:20.10 | 48181 | 631907 | 14:02.41 | 0:58.34 | 63191 | 675748 | 15:01.00 | 2:41.58 | 67575 | 797079 | 17:42.58 | 2:14.61 | 79708 | 8981810 | 19:57.44 | 4:23.64 | 89819 | 10960711 | 24:21.33 | 2:03.39 | 109608 | 11887112 | 26:24.72 | 3:16.24 | 118872 | 13359513 | 29:41.21 | 2:26.05 | 133596 | 14455014 | 32:07.26 | 2:04.36 | 144551 | 15388615 | 34:11.62 | 4:45.09 | 153887 | 17527016 | 38:56.71 | 7:16.36 | 175271 | 20800617 | 46:13.32 | 1:18.70 | 208007 | 21392618 | 47:32.27 | 6:33.38 | 213927 | 243439
Range status and errors
Selected range
Filename F:\=== VINYL RIPS ===\=== EAC===\X FRESH RIP\Cecilia Bartoli & Bryn Terfel - Duets.wav
Peak level 68.7 %Extraction speed 1.7 XRange quality 100.0 %Copy CRC A96DA1B7Copy OK
No errors occurred
AccurateRip summary
Track 1 accurately ripped (confidence 25) [FF9810D1] (AR v2)Track 2 accurately ripped (confidence 25) [3E004F21] (AR v2)Track 3 accurately ripped (confidence 25) [485799EC] (AR v2)Track 4 accurately ripped (confidence 25) [9BE672F1] (AR v2)Track 5 accurately ripped (confidence 25) [8F371345] (AR v2)Track 6 accurately ripped (confidence 25) [7658AAB4] (AR v2)Track 7 accurately ripped (confidence 25) [4C6B2316] (AR v2)Track 8 accurately ripped (confidence 24) [4CAD2BAE] (AR v2)Track 9 accurately ripped (confidence 25) [2B865DE5] (AR v2)Track 10 accurately ripped (confidence 25) [93BDD44E] (AR v2)Track 11 accurately ripped (confidence 25) [2B2A7DAB] (AR v2)Track 12 accurately ripped (confidence 25) [7CFCC608] (AR v2)Track 13 accurately ripped (confidence 25) [233181FC] (AR v2)Track 14 accurately ripped (confidence 25) [0CFCFFE7] (AR v2)Track 15 accurately ripped (confidence 25) [C64FECFC] (AR v2)Track 16 accurately ripped (confidence 25) [966A9030] (AR v2)Track 17 accurately ripped (confidence 25) [BC344D42] (AR v2)Track 18 accurately ripped (confidence 25) [7C8D08B8] (AR v2)
All tracks accurately ripped
End of status report
---- CUETools DB Plugin V2.1.3
[CTDB TOCID: hm11hkwQ8cxyKhUkRUbSm9QFw5Y-] found, Submit result: hm11hkwQ8cxyKhUkRUbSm9QFw5Y- has been confirmed[4f3a038c] (49/51) Accurately ripped[ae44eb5a] (01/51) Differs in 5318 samples @21:01:31-21:01:32,21:05:43-21:05:44,21:05:56-21:05:57,21:05:69-21:05:70,21:06:07-21:06:08,21:06:20-21:06:21,21:06:33-21:06:34,21:06:46-21:06:47,21:06:59-21:06:60,21:06:72-21:06:73,21:07:10-21:07:11,21:07:23-21:07:24,21:07:36-21:07:37,21:07:49-21:07:50,21:07:62-21:07:63,21:08:00-21:08:01,21:08:13-21:08:14,21:08:26-21:08:27,21:08:39-21:08:40,21:08:52-21:08:53,21:08:65-21:08:66,21:09:03-21:09:04,21:09:16-21:09:17,21:09:29-21:09:30,21:09:42-21:09:43,21:09:68-21:09:69,21:10:06-21:10:07,21:10:19-21:10:20,21:10:32-21:10:33,21:10:45-21:10:46,21:10:58-21:10:59,21:10:71-21:10:72,21:11:09-21:11:10,21:11:22-21:11:23,21:11:35-21:11:36,21:11:48-21:11:49,21:11:61-21:11:62,21:11:74-21:12:00,21:13:03-21:13:04[44c7f338] (01/51) No matchYou can use CUETools to repair this rip.
==== Log checksum CAA7B152BA6F7EE57A2533E2CC1A3053634573A31A7AC1257D558EA90B4D72FA ====
mp3



Показать сообщения:    

Текущее время: 09-Дек 14:40

Часовой пояс: UTC + 3


Вы не можете начинать темы
Вы не можете отвечать на сообщения
Вы не можете редактировать свои сообщения
Вы не можете удалять свои сообщения
Вы не можете голосовать в опросах
Вы не можете прикреплять файлы к сообщениям
Вы не можете скачивать файлы