(Classical) Tomas Luis de Victoria - Requiem; Alonso Lobo - Verca est in luctum (The Tallis scholars) - 2001, FLAC (image+.cue) lossless


Статистика раздачи [Обновить пиров]
Размер:  203 MB   |    Зарегистрирован:  1 год   |    Скачан:  0 раз

Полного источника не было: Никогда

Личеров:  6  [  0 KB/s  ]   Подробная статистика пиров
 
   
 
 
 

[Цитировать]

Tomas Luis de Victoria - Requiem; Alonso Lobo - Verca est in luctum (The Tallis scholars)
Жанр: Classical
Год издания диска: 2001
Издатель (лейбл): Gimell Records
Номер по каталогу: CDGIM 012
Аудиокодек: FLAC
Тип рипа: image+.cue
Битрейт аудио: lossless
Продолжительность: 46’49
Источник: собственный рип
Наличие сканов в содержимом раздачи: да
Треклист:
01. Tomas Luis de Victoria: Requiem. Taedet animam meam"
02. Introitus - Requiem aeternam
03. Kyrie
04. Graduale - Requiem aeternam
05. Offertorium - Domine, Iesu Christe
06. Sanctus & Benedictus
07. Agnus Dei I, II & III
08. Communio - Lux aeterna
09. Funeral motet - Versa est in luctum
10. Responsory - Libera me, Domine
11. Alonso Lobo: Versa est in luctum
Исполнители:
The Tallis scholars:
Soprano: Deborah Roberts, Tessa Bonner, Sally Dunkley, Ruth Holton
Alto: Caroline Trevor, Robert Harre-Jones
Tenor: Charles Daniels, Nicolas Robertson, Mark Padmore, Simon Davies
Bass: Francis Steele, Donald Greig
Directed by Peter Phillips

LOG EAC

Exact Audio Copy V1.0 beta 1 from 15. November 2010
EAC extraction logfile from 7. November 2011, 21:15
The Tallis scholars / T.L. de Victoria - Requiem, A.Lobo - Verca est in luctum
Used drive : PIONEER DVD-RW DVR-218L Adapter: 1 ID: 0
Read mode : SecureUtilize accurate stream : YesDefeat audio cache : YesMake use of C2 pointers : No
Read offset correction : 6Overread into Lead-In and Lead-Out : NoFill up missing offset samples with silence : YesDelete leading and trailing silent blocks : NoNull samples used in CRC calculations : YesUsed interface : Native Win32 interface for Win NT & 2000
Used output format : User Defined EncoderSelected bitrate : 192 kBit/sQuality : HighAdd ID3 tag : NoCommand line compressor : C:\Program Files\Exact Audio Copy\Flac\flac.exeAdditional command line options : -T "DATE=%y" -T "GENRE=%m" -8 -V %s
TOC of the extracted CD
Track | Start | Length | Start sector | End sector --------------------------------------------------------- 1 | 0:00.12 | 3:19.13 | 12 | 14949 2 | 3:19.25 | 6:12.62 | 14950 | 42911 3 | 9:32.12 | 2:34.63 | 42912 | 54524 4 | 12:07.00 | 3:07.55 | 54525 | 68604 5 | 15:14.55 | 4:36.20 | 68605 | 89324 6 | 19:51.00 | 2:55.32 | 89325 | 102481 7 | 22:46.32 | 2:46.70 | 102482 | 115001 8 | 25:33.27 | 3:47.48 | 115002 | 132074 9 | 29:21.00 | 3:40.50 | 132075 | 148624 10 | 33:01.50 | 9:12.25 | 148625 | 190049 11 | 42:14.00 | 4:35.37 | 190050 | 210711
Range status and errors
Selected range
Filename C:\T.L. de Victoria - Requiem, A.Lobo - Verca est in luctum.wav
Peak level 100.0 % Extraction speed 0.1 X Range quality 100.0 % Test CRC 87063D53 Copy CRC 87063D53 Copy OK
No errors occurred
AccurateRip summary
Track 1 accurately ripped (confidence 3) [F427E574]Track 2 accurately ripped (confidence 3) [08C19B4D]Track 3 accurately ripped (confidence 3) [58B8DAFD]Track 4 accurately ripped (confidence 3) [E1380FAB]Track 5 accurately ripped (confidence 3) [04396B3C]Track 6 accurately ripped (confidence 3) [4E9E8A30]Track 7 accurately ripped (confidence 3) [64EA79E6]Track 8 accurately ripped (confidence 3) [81B7CA23]Track 9 accurately ripped (confidence 3) [9F5BA792]Track 10 accurately ripped (confidence 3) [626825E4]Track 11 accurately ripped (confidence 3) [56C82E3A]
All tracks accurately ripped
End of status report
==== Log checksum 75513071733CE0B9E02D89CB19D4CA7545C3A0E996C43F2F037B5DD97A2C064D ====

Содержание индексной карты (.CUE)

REM GENRE ClassicalREM DATE 2001REM DISCID 9B0AF90BREM COMMENT "ExactAudioCopy v1.0b1"PERFORMER "The Tallis scholars"TITLE "T.L. de Victoria - Requiem, A.Lobo - Verca est in luctum"FILE "T.L. de Victoria - Requiem, A.Lobo - Verca est in luctum.flac" WAVE TRACK 01 AUDIO TITLE "Tomas Luis de Victoria: Requiem. Taedet animam meam" PERFORMER "The Tallis scholars" FLAGS PRE INDEX 00 00:00:00 INDEX 01 00:00:12 TRACK 02 AUDIO TITLE "Introitus - Requiem aeternam" PERFORMER "The Tallis scholars" FLAGS PRE INDEX 01 03:19:25 TRACK 03 AUDIO TITLE "Kyrie" PERFORMER "The Tallis scholars" FLAGS PRE INDEX 01 09:32:12 TRACK 04 AUDIO TITLE "Graduale - Requiem aeternam" PERFORMER "The Tallis scholars" FLAGS PRE INDEX 01 12:07:00 INDEX 02 13:36:67 TRACK 05 AUDIO TITLE "Offertorium - Domine, Iesu Christe" PERFORMER "The Tallis scholars" FLAGS PRE INDEX 01 15:14:55 TRACK 06 AUDIO TITLE "Sanctus & Benedictus" PERFORMER "The Tallis scholars" FLAGS PRE INDEX 00 19:49:37 INDEX 01 19:51:00 INDEX 02 21:43:02 TRACK 07 AUDIO TITLE "Agnus Dei I, II & III" PERFORMER "The Tallis scholars" FLAGS PRE INDEX 01 22:46:32 INDEX 02 23:51:52 INDEX 03 24:15:37 TRACK 08 AUDIO TITLE "Communio - Lux aeterna" PERFORMER "The Tallis scholars" FLAGS PRE INDEX 01 25:33:27 TRACK 09 AUDIO TITLE "Funeral motet - Versa est in luctum" PERFORMER "The Tallis scholars" FLAGS PRE INDEX 00 29:17:00 INDEX 01 29:21:00 TRACK 10 AUDIO TITLE "Responsory - Libera me, Domine" PERFORMER "The Tallis scholars" FLAGS PRE INDEX 00 32:58:00 INDEX 01 33:01:50 TRACK 11 AUDIO TITLE "Alonso Lobo: Versa est in luctum" PERFORMER "The Tallis scholars" FLAGS PRE INDEX 00 42:07:00 INDEX 01 42:14:00
Доп. информация: Tomás Luis de Victoria was born in 1548 in Avila, the birthplace of St Teresa. Just as she seems to personify the religious ethos of sixteenth-century Spain (the good side of it, at least), so Victoria came to embody the best of the Spanish character in music. As a youth he learnt his art as a chorister at the Cathedral of Avila. So promising was he that he was sent to Rome at seventeen years of age, patronised by Philip II and by the Church, to study at the Jesuits’ Collegium Germanicum...
Victoria’s Office of the Dead includes his second Requiem Mass, written for six-part choir. This music, often known simply as Victoria’s Requiem, has been regarded as some of his finest and one of the last great works in what we call the Renaissance polyphonic style. Its refined and dignified austerity is shot through with passionate conviction; it glows with extraordinary fervour within a musical and spiritual atmosphere of serenity and fitness for its liturgical purpose. But it does need some explaining.
mp3
[teatrix.ru].t10634.torrent 
Торрент: Зарегистрирован [ 2015-11-10 20:56 ] · DAEBC91CF67B5F7DED566D24DA0F7653F5B1D36A

Скачать .torrent

Скачать

17 KB

Статус: проверено
Скачан: 0 раз
Размер: 203 MB
terms.php



Быстрый ответ

Имя:

      
Для отправки сообщений необходимо включить JavaScript
Показать сообщения:    

Текущее время: 09-Дек 06:58

Часовой пояс: UTC + 3


Вы можете начинать темы
Вы можете отвечать на сообщения
Вы не можете редактировать свои сообщения
Вы не можете удалять свои сообщения
Вы не можете голосовать в опросах
Вы не можете прикреплять файлы к сообщениям
Вы можете скачивать файлы