(Classical, Serenata) Hasse - Marc' Antonio e Cleopatra / Хассе - Марк Антоний и Клеопатра (Matthew Dirst, Ava Pine, Jamie Barton) - 2010, FLAC (image+.cue) lossless


 

[Цитировать]

Hasse - Marc' Antonio e Cleopatra (Matthew Dirst, Ava Pine, Jamie Barton)
Жанр: Classical, Serenata
Страна-производитель диска: USA
Год издания диска: 2010
Издатель (лейбл): Dorian
Номер по каталогу: DSL-92115
Дата записи: 2010
Аудиокодек: FLAC
Тип рипа: image+.cue
Битрейт аудио: lossless
Продолжительность: CD1:46’22; CD2:43’28
Источник: собственный рип
Наличие сканов в содержимом раздачи: да
Исполнители:
Cleopatra - Ava Pine
Marc Antonio - Jamie Barton
Ars Lyrica Houston
Conductor - Matthew Dirst
Треклист:
CD1
01. Sinfonia: Spiritoso e staccato - Allegro
02. Sinfonia: Spiritoso e staccato - Grazioso
03. Recitativo: Da quel salso elemento
04. Aria: Pur ch'io possa a te (Marc' Antonio)
05. Recitativo: Signor, la tua sciagura
06. Aria: Morte col fiero aspetto (Cleopatra)
07. Recitativo: Or che la mia fortuna
08. Aria: Fra le pompe peregrine (Marc' Antonio)
09. Recitativo: Si, mel rammento, o caro
10. Aria: Un sol tuo sospiro (Cleoparta)
11. Recitativo: Cosi rapido fugge e vola il tempo
12. Duetto: Attendi ad amarmi (Marc' Antonio, Cleoparta)
CD2
01. Recitativo: Signor, la tuna speranza
02. Aria: A Dio trono, impero a Dio (Cleopatra)
03. Recitativo: Ah, tolga il ciel mia cara
04. Aria: Come veder potrei (Marc' Antonio)
05. Recitativo: Lascia, Antonio, deh lascia
06. Aria: Quel candido armellino (Cleopatra)
07. Recitativo: L'eroico tuo coraggio
08. Aria: La tra i mirti degl'Elisi (Marc' Antonio)
09. Recitativo: Poiche la morte sola
10. Duetto: Bella etade avventurosa (Marc' Antonio, Cleopatra)

Лог создания рипа

Отчёт EAC CD1

Exact Audio Copy V1.0 beta 1 from 15. November 2010
EAC extraction logfile from 18. June 2011, 17:42
Ava Pine, Jamie Barton, Matthew Dirst - Ars Lyrica / Hasse - Marc' Antonio e Cleopatra CD1
Used drive : PIONEER DVD-RW DVR-218L Adapter: 1 ID: 0
Read mode : SecureUtilize accurate stream : YesDefeat audio cache : YesMake use of C2 pointers : No
Read offset correction : 6Overread into Lead-In and Lead-Out : NoFill up missing offset samples with silence : YesDelete leading and trailing silent blocks : NoNull samples used in CRC calculations : YesUsed interface : Native Win32 interface for Win NT & 2000
Used output format : User Defined EncoderSelected bitrate : 192 kBit/sQuality : HighAdd ID3 tag : NoCommand line compressor : C:\Program Files\Exact Audio Copy\Flac\flac.exeAdditional command line options : -T "DATE=%y" -T "GENRE=%m" -8 -V %s
TOC of the extracted CD
Track | Start | Length | Start sector | End sector --------------------------------------------------------- 1 | 0:00.00 | 3:04.42 | 0 | 13841 2 | 3:04.42 | 2:27.06 | 13842 | 24872 3 | 5:31.48 | 2:32.34 | 24873 | 36306 4 | 8:04.07 | 6:10.56 | 36307 | 64112 5 | 14:14.63 | 1:04.64 | 64113 | 68976 6 | 15:19.52 | 4:12.64 | 68977 | 87940 7 | 19:32.41 | 1:31.07 | 87941 | 94772 8 | 21:03.48 | 9:47.13 | 94773 | 138810 9 | 30:50.61 | 1:37.52 | 138811 | 146137 10 | 32:28.38 | 6:03.70 | 146138 | 173432 11 | 38:32.33 | 2:51.17 | 173433 | 186274 12 | 41:23.50 | 4:57.66 | 186275 | 208615
Range status and errors
Selected range
Filename C:\Hasse - Marc' Antonio e Cleopatra CD1.wav
Peak level 96.6 % Extraction speed 0.1 X Range quality 100.0 % Test CRC 70947E7E Copy CRC 70947E7E Copy OK
No errors occurred
AccurateRip summary
Track 1 accurately ripped (confidence 3) [7FF3FAB0]Track 2 accurately ripped (confidence 3) [A4FF6C50]Track 3 accurately ripped (confidence 3) [E50135A3]Track 4 accurately ripped (confidence 3) [55AB4E5B]Track 5 accurately ripped (confidence 3) [35CAA1E2]Track 6 accurately ripped (confidence 3) [B2A2CBA4]Track 7 accurately ripped (confidence 3) [573C7BFC]Track 8 accurately ripped (confidence 3) [DF06007C]Track 9 accurately ripped (confidence 3) [E113CA48]Track 10 accurately ripped (confidence 3) [0C80DCDA]Track 11 accurately ripped (confidence 3) [22E055D1]Track 12 accurately ripped (confidence 3) [7873D9A1]
All tracks accurately ripped
End of status report
==== Log checksum BCE0A00DB4854F6AB36F0626F98AF21C31012E3C93B6684E7E8C01ECBEDE0DE0 ====

Отчёт EAC CD2

Exact Audio Copy V1.0 beta 1 from 15. November 2010
EAC extraction logfile from 18. June 2011, 20:55
Ava Pine, Jamie Barton, Matthew Dirst - Ars Lyrica / Hasse - Marc' Antonio e Cleopatra CD2
Used drive : PIONEER DVD-RW DVR-218L Adapter: 1 ID: 0
Read mode : SecureUtilize accurate stream : YesDefeat audio cache : YesMake use of C2 pointers : No
Read offset correction : 6Overread into Lead-In and Lead-Out : NoFill up missing offset samples with silence : YesDelete leading and trailing silent blocks : NoNull samples used in CRC calculations : YesUsed interface : Native Win32 interface for Win NT & 2000
Used output format : User Defined EncoderSelected bitrate : 192 kBit/sQuality : HighAdd ID3 tag : NoCommand line compressor : C:\Program Files\Exact Audio Copy\Flac\flac.exeAdditional command line options : -T "DATE=%y" -T "GENRE=%m" -8 -V %s
TOC of the extracted CD
Track | Start | Length | Start sector | End sector --------------------------------------------------------- 1 | 0:00.00 | 2:16.59 | 0 | 10258 2 | 2:16.59 | 5:01.55 | 10259 | 32888 3 | 7:18.39 | 0:40.20 | 32889 | 35908 4 | 7:58.59 | 6:06.73 | 35909 | 63431 5 | 14:05.57 | 1:31.31 | 63432 | 70287 6 | 15:37.13 | 8:37.57 | 70288 | 109119 7 | 24:14.70 | 1:00.07 | 109120 | 113626 8 | 25:15.02 | 8:01.40 | 113627 | 149741 9 | 33:16.42 | 4:02.27 | 149742 | 167918 10 | 37:18.69 | 6:09.12 | 167919 | 195605
Range status and errors
Selected range
Filename C:\Hasse - Marc' Antonio e Cleopatra CD2.wav
Peak level 96.5 % Extraction speed 0.2 X Range quality 100.0 % Test CRC 91F0A065 Copy CRC 91F0A065 Copy OK
No errors occurred
AccurateRip summary
Track 1 accurately ripped (confidence 3) [F9FB9010]Track 2 accurately ripped (confidence 3) [060CE8B8]Track 3 accurately ripped (confidence 3) [EFC6F090]Track 4 accurately ripped (confidence 3) [DEFC71CC]Track 5 accurately ripped (confidence 3) [38A91A27]Track 6 accurately ripped (confidence 3) [748E90AF]Track 7 accurately ripped (confidence 3) [47C38366]Track 8 accurately ripped (confidence 3) [BCDC8F68]Track 9 accurately ripped (confidence 3) [D921AA64]Track 10 accurately ripped (confidence 3) [80BCE1E4]
All tracks accurately ripped
End of status report
==== Log checksum 11A55ED56AE9FC1C8103E82EC906FDB823E32B1A861659D87CB0667F0D08E5D9 ====
mp3



Показать сообщения:    

Текущее время: 08-Дек 01:21

Часовой пояс: UTC + 3


Вы не можете начинать темы
Вы не можете отвечать на сообщения
Вы не можете редактировать свои сообщения
Вы не можете удалять свои сообщения
Вы не можете голосовать в опросах
Вы не можете прикреплять файлы к сообщениям
Вы не можете скачивать файлы