Сделано в СССР. Балет в СССР (2013) SATRip


 

[Цитировать]

Сделано в СССР. Балет в СССР (2013) SATRip - Режиссер / Телекомпания: МИР
Русское название: Сделано в СССР
Год выпуска: 2013
Жанр: Документальный
Описание:
1917–1991 – это не просто промежуток времени, а целая эпоха со своими особенностями, научными открытиями, спортивными достижениями, культурными феноменами. Эта эпоха оставила наследство, которое до сих пор интересно и актуально. Кто-то все еще ностальгирует по своему советскому детству, проведенному в пионерлагере. У кого-то дома хранятся коллекции марок с Гагариным, фарфоровые комсомольцы и подшивки журнала «Крокодил». Иные пересматривают жизнерадостные комедии тридцатых с Любовью Орловой и послевоенные сказки Александра Роу. Каждый найдет для себя в советской эпохе что-нибудь любопытное и увлекательное.
«Сделано в СССР» - это цикл документальных программ, посвященных советской эстетике и культуре, повседневному быту людей и закулисной жизни кумиров, высокому искусству и скоротечным модам.
- Сергей Дягилев, Анна Павлова, Тамара Карсавина, Вацлав Нижинский в начале прошлого века создали представление о том, что такое русский балет. мир рукоплевкал, преклонялся, боготворил великое искусство великого народа. Октябрьская революция навсегда изменит представление мира о России и жизнь многих балетных. Они уедут, чтобы никогда не вернуться. Но именно балету и в новом советском времени суждено будет стать визитной карточкой империи по имени СССР.
Режиссёр: Лилия Самойлова
Продолжительность: ~ 00:24:10
Видеокодек: XviD
Битрейт видео: ~1498 kb/s
Размер кадра: 640 x 480
Качество видео: SATRip
Аудиокодек: MP3, 2ch.
Битрейт аудио: 128 kb/s

MediaInfo

Формат : AVI
Формат/Информация : Audio Video Interleave
Размер файла : 283 Мбайт
Продолжительность : 24 м.
Общий поток : 1636 Кбит/сек
Программа кодирования : VirtualDubMod 1.5.10.3 | www.virtualdub-fr.org || (build 2550/release)
Библиотека кодирования : VirtualDubMod build 2550/release
Видео
Идентификатор : 0
Формат : MPEG-4 Visual
Профиль формата : Advanced Simple@L5
Параметр BVOP формата : 2
Параметр QPel формата : Нет
Параметр GMC формата : Без точки перехода
Параметр матрицы формата : Default (MPEG)
Идентификатор кодека : XVID
Идентификатор кодека/Подсказка : XviD
Продолжительность : 24 м.
Битрейт : 1498 Кбит/сек
Ширина : 640 пикселей
Высота : 480 пикселей
Соотношение сторон : 4:3
Частота кадров : 25,000 кадров/сек
Цветовое пространство : YUV
Субдискретизация насыщенности : 4:2:0
Битовая глубина : 8 бит
Тип развёртки : Прогрессивная
Метод сжатия : С потерями
Бит/(Пиксели*Кадры) : 0.195
Размер потока : 259 Мбайт (92%)
Библиотека кодирования : XviD 1.2.1 (UTC 2008-12-04)
Аудио
Идентификатор : 1
Формат : MPEG Audio
Версия формата : Version 1
Профиль формата : Layer 3
Идентификатор кодека : 55
Идентификатор кодека/Подсказка : MP3
Продолжительность : 24 м.
Вид битрейта : Постоянный
Битрейт : 128 Кбит/сек
Каналы : 2 канала
Частота : 48,0 КГц
Метод сжатия : С потерями
Размер потока : 22,1 Мбайт (8%)
Выравнивание : Соединение по промежуткам
Продолжительность промежутка : 40 мс. (1,00 видеокадр)
Время предзагрузки промежутка : 504 мс.
Библиотека кодирования : LAME3.99r
Настройки программы : -m s -V 4 -q 2 -lowpass 17 -b 128
Скриншоты:



Показать сообщения:    

Текущее время: 10-Дек 00:23

Часовой пояс: UTC + 3


Вы не можете начинать темы
Вы не можете отвечать на сообщения
Вы не можете редактировать свои сообщения
Вы не можете удалять свои сообщения
Вы не можете голосовать в опросах
Вы не можете прикреплять файлы к сообщениям
Вы не можете скачивать файлы