(Classical) Flour de Beaulte - Late Medieval Songs From Cyprus - La Morra, Michal Gondko, Corina Marti - 2006, FLAC (image+.cue) lossless


 

[Цитировать]

Flour de Beaulté - Late Medieval Songs From Cyprus - La Morra, Michal Gondko, Corina Marti
Жанр: Classical
Год издания диска: 2006
Издатель (лейбл): Ramée
Номер по каталогу: RAM 0602
Дата записи: 2005
Аудиокодек: FLAC
Тип рипа: image+.cue
Битрейт аудио: lossless
Продолжительность: 68:39
Источник: собственный рип
Наличие сканов в содержимом раздачи: да
Треклист:
Late Medieval Songs From Cyprus
[1] La belle et la gente rose
[2] Pour haut et liement chanter
[3] Amour, de qui je sui trestout espris
[4] Sur toute fleur la rose est colourie
[5] J'ai maintes fois oÿ conter
[6] Il faut, pour trover un bon port
[7] Tousjours servir je veuil la douce fleur
[8] Amour tient en sa ballie mon cuer
[9] Puisque amé sui doulcement
[10] Tres gente, pure et nete fleur de lis
[11] Ayes pitié de vostre creature
[12] Vo gent atrait me fait vostre servant
[13] Qui de Fortune atende assés avoir
Исполнители:
La Morra
Michal Gondko & Corina Marti Artistic directors

Лог создания рипа

Exact Audio Copy V1.1 from 23. June 2015
EAC extraction logfile from 4. November 2015, 21:41
La Morra / Flour de Beaulte
Used drive : HL-DT-STDVDRAM GU70N Adapter: 1 ID: 0
Read mode : SecureUtilize accurate stream : YesDefeat audio cache : YesMake use of C2 pointers : No
Read offset correction : 48Overread into Lead-In and Lead-Out : NoFill up missing offset samples with silence : YesDelete leading and trailing silent blocks : NoNull samples used in CRC calculations : YesUsed interface : Native Win32 interface for Win NT & 2000
Used output format : User Defined EncoderSelected bitrate : 128 kBit/sQuality : HighAdd ID3 tag : NoCommand line compressor : C:\Program Files (x86)\Exact Audio Copy\Flac\flac.exeAdditional command line options : -V -8 -T "Date=%year%" -T "Genre=%genre%" %source%
TOC of the extracted CD
Track | Start | Length | Start sector | End sector --------------------------------------------------------- 1 | 0:00.00 | 3:08.70 | 0 | 14169 2 | 3:08.70 | 7:39.58 | 14170 | 48652 3 | 10:48.53 | 4:01.67 | 48653 | 66794 4 | 14:50.45 | 10:06.47 | 66795 | 112291 5 | 24:57.17 | 3:59.64 | 112292 | 130280 6 | 28:57.06 | 2:45.72 | 130281 | 142727 7 | 31:43.03 | 3:17.52 | 142728 | 157554 8 | 35:00.55 | 1:57.60 | 157555 | 166389 9 | 36:58.40 | 3:59.07 | 166390 | 184321 10 | 40:57.47 | 9:50.47 | 184322 | 228618 11 | 50:48.19 | 3:10.08 | 228619 | 242876 12 | 53:58.27 | 4:11.10 | 242877 | 261711 13 | 58:09.37 | 10:28.35 | 261712 | 308846
Range status and errors
Selected range
Filename C:\temp\RAM 0602 Flour de Beaulte - La Morra\Flour de Beaulte.wav
Peak level 99.7 % Extraction speed 2.3 X Range quality 100.0 % Test CRC 0B886818 Copy CRC 0B886818 Copy OK
No errors occurred
AccurateRip summary
Track 1 accurately ripped (confidence 2) [BF1C52ED] (AR v2)Track 2 accurately ripped (confidence 2) [12FB70F3] (AR v2)Track 3 accurately ripped (confidence 2) [F76B4D2A] (AR v2)Track 4 accurately ripped (confidence 2) [3C365E1A] (AR v2)Track 5 accurately ripped (confidence 2) [5218F1C7] (AR v2)Track 6 accurately ripped (confidence 2) [41AD0903] (AR v2)Track 7 accurately ripped (confidence 2) [2AB852A0] (AR v2)Track 8 accurately ripped (confidence 2) [1B695C0C] (AR v2)Track 9 accurately ripped (confidence 2) [732D921F] (AR v2)Track 10 accurately ripped (confidence 2) [ABB8CEB2] (AR v2)Track 11 accurately ripped (confidence 2) [883939EE] (AR v2)Track 12 accurately ripped (confidence 2) [D0D78C38] (AR v2)Track 13 accurately ripped (confidence 2) [6CC4D24C] (AR v2)
All tracks accurately ripped
End of status report
==== Log checksum F027ACDD11C100C2975C0663B32DD87CCDA0B3F68AABD9D0FF6E5415E5084390 ====



Показать сообщения:    

Текущее время: 03-Дек 03:24

Часовой пояс: UTC + 3


Вы не можете начинать темы
Вы не можете отвечать на сообщения
Вы не можете редактировать свои сообщения
Вы не можете удалять свои сообщения
Вы не можете голосовать в опросах
Вы не можете прикреплять файлы к сообщениям
Вы не можете скачивать файлы