Carl Maria von Weber - Le Spectre de la Rose (Thierry Malandain, Michel Tabachnik, Ballet de Biarritz) /Карл Мария фон Вебер - Призрак Розы (Тьерри Маланден) [2012, Modern ballet, HDTVRip]


 

[Цитировать]

Le Spectre de la Rose / Призрак Розы (Видение Розы)
Год выпуска: 2012
Лейбл: MEZZO
Страна-производитель: Франция, Испания
Жанр: Modern ballet
Продолжительность: 00:11:01
Режиссер ТВ: Sonia Paramo
Композитор: Карл Мария фон Вебер / Carl Maria von Weber
Исполнители музыки: Orchestre de l'Opéra de Paris (запись Editeur Paris: Cité de la musique, 2010)
Режиссер/Хореограф: Тьерри Маланден / Thierry Malandain
Дирижер: Мишель Табачник / Michel Tabachnik
Исполнители: Miyuki Kanei, Daniel Vizcayo
Описание:
Балет Тьерри Маландена «Призрак Розы» на музыку Карла Марии фон Вебера записан на Музыкальном фестивале «Куинсэна» в Сан-Себастьяне (Испания) на сцене театра «Виктории-Евгении» (Teatro Victoria Eugenia).
Доп. информация: Рип и описание alex7, за что ему огромное спасибо
Качество видео: HDTVRip
Формат/Контейнер: MKV
Видео кодек: H.264
Аудио кодек: MP3
Видео поток: MPEG4 Video (H264) 1920x1080 25.00fps
Аудио поток: MPEG Audio Layer 3 48000Hz stereo 256kbps
Семпл http://multi-up.com/903430

Mediainfo

Format : Matroska
File size : 291 MiB
Duration : 11mn 1s
Overall bit rate : 3 692 Kbps
Writing application : Lavf51.12.1
Writing library : Lavf51.12.1
Video
ID : 1
Format : AVC
Format/Info : Advanced Video Codec
Format profile : Baseline@L4.0
Format settings, CABAC : No
Format settings, ReFrames : 2 frames
Format settings, GOP : M=1, N=32
Muxing mode : Container profile=Unknown@4.0
Codec ID : V_MPEG4/ISO/AVC
Duration : 11mn 1s
Bit rate : 3 362 Kbps
Width : 1 920 pixels
Height : 1 080 pixels
Display aspect ratio : 16:9
Frame rate : 25.000 fps
Standard : PAL
Color space : YUV
Chroma subsampling : 4:2:0
Bit depth : 8 bits
Scan type : Progressive
Bits/(Pixel*Frame) : 0.065
Stream size : 265 MiB (91%)
Color primaries : BT.470-6 System B, BT.470-6 System G, BT.601-6 625, BT.1358 625, BT.1700 625 PAL, BT.1700 625 SECAM
Transfer characteristics : BT.470-6 System B, BT.470-6 System G
Matrix coefficients : BT.470-6 System B, BT.470-6 System G, BT.601-6 625, BT.1358 625, BT.1700 625 PAL, BT.1700 625 SECAM, IEC 61966-2-4 601
Audio
ID : 2
Format : MPEG Audio
Format version : Version 1
Format profile : Layer 3
Mode : Joint stereo
Codec ID : A_MPEG/L3
Codec ID/Hint : MP3
Duration : 11mn 1s
Bit rate mode : Constant
Bit rate : 256 Kbps
Channel(s) : 2 channels
Sampling rate : 48.0 KHz
Bit depth : 16 bits
Stream size : 20.2 MiB (7%)
Writing library : LAME3.97

Скриншоты




Показать сообщения:    

Текущее время: 11-Дек 14:58

Часовой пояс: UTC + 3


Вы не можете начинать темы
Вы не можете отвечать на сообщения
Вы не можете редактировать свои сообщения
Вы не можете удалять свои сообщения
Вы не можете голосовать в опросах
Вы не можете прикреплять файлы к сообщениям
Вы не можете скачивать файлы