(Vocal) Christiane Karg - Scene! (Soprano Concert arias by Beethoven, Haydn, Mozart, Mendelssohn) - 2015, FLAC (tracks+cue.), lossless


 

[Цитировать]

Christiane Karg - Scene!
Жанр: Vocal
Страна-производитель диска: Германия
Год издания диска: 2015
Издатель (лейбл): Berlin Classics
Дата записи: 2015
Аудиокодек: FLAC
Тип рипа: tracks+cue.
Битрейт аудио: lossless
Продолжительность: 64:05
Источник: релизер (sddd)
Исполнители:
Christiane Karg, soprano.
Arcangelo, ensemble,
Jonathan Cohen, Conductor,
Alina Pogostkina, solo violin (track 6),
Malcom Martineau, piano (track 2).
Recording Date: November 9 - 12, 2014.

Треклист

1. Ludwig van Beethoven: "Ah Perfido!" op. 65
2. Wolfgang Amadeus Mozart: "Ch'io Mi Scordi Di Te? - Non Temer, Amato Bene" KV 505
Joseph Haydn:
3. "Miseri Noi, Misera Patria Hob." XXIVa:7
4."Scena di Berenice Hob." XXIVa:10
5. Wolfgang Amadeus Mozart: "Misera Dove Son - Ah! Non Son'io Che Parlo" KV 369
6. Felix Mendelssohn: "Infelice Pensier - Ah, Ritorna Età Dell'oro" op. 94 (1. Fassung)

Лог создания рипа

Exact Audio Copy V1.0 beta 3 from 29. August 2011
EAC extraction logfile from 1. October 2015, 21:21
Christiane Karg, Arcangelo, Jonathan Cohen / Christiane Karg Scene!
Used drive : PLDS DVD-RW DS8A8SH Adapter: 0 ID: 1
Read mode : SecureUtilize accurate stream : YesDefeat audio cache : YesMake use of C2 pointers : No
Read offset correction : 6Overread into Lead-In and Lead-Out : NoFill up missing offset samples with silence : YesDelete leading and trailing silent blocks : NoNull samples used in CRC calculations : YesUsed interface : Native Win32 interface for Win NT & 2000Gap handling : Appended to previous track
Used output format : User Defined EncoderSelected bitrate : 1024 kBit/sQuality : HighAdd ID3 tag : NoCommand line compressor : T:\Software\Exact Audio Copy\FLAC\FLAC.EXEAdditional command line options : -6 -V -T "ARTIST=%artist%" -T "TITLE=%title%" -T "ALBUM=%albumtitle%" -T "DATE=%year%" -T "TRACKNUMBER=%tracknr%" -T "GENRE=%genre%" -T "COMMENT=%comment%" -T "BAND=%albuminterpret%" -T "ALBUMARTIST=%albuminterpret%" -T "COMPOSER=%composer%" %haslyrics%--tag-from-file=LYRICS="%lyricsfile%"%haslyrics% -T "DISCNUMBER=%cdnumber%" -T "TOTALDISCS=%totalcds%" -T "TOTALTRACKS=%numtracks%" %hascover%--picture="%coverfile%"%hascover% %source% -o %dest%
TOC of the extracted CD
Track | Start | Length | Start sector | End sector --------------------------------------------------------- 1 | 0:00.00 | 11:30.21 | 0 | 51770 2 | 11:30.21 | 9:59.08 | 51771 | 96703 3 | 21:29.29 | 10:43.35 | 96704 | 144963 4 | 32:12.64 | 12:07.08 | 144964 | 199496 5 | 44:19.72 | 6:51.21 | 199497 | 230342 6 | 51:11.18 | 12:55.06 | 230343 | 288473
Track 1
Filename T:\Scene!-Beethoven,Haydn,Mendelssohn,Mozart-Karg,Arcangelo,Cohen[FLAC-CD]\01.Ah Perfido! op. 65.wav
Pre-gap length 0:00:02.00
Peak level 91.1 % Extraction speed 2.2 X Track quality 100.0 % Test CRC 1B0A2831 Copy CRC 1B0A2831 Accurately ripped (confidence 2) [B7CD111F] (AR v2) Copy OK
Track 2
Filename T:\Scene!-Beethoven,Haydn,Mendelssohn,Mozart-Karg,Arcangelo,Cohen[FLAC-CD]\02.Ch'io Mi Scordi Di Te - Non Temer, Amato Bene KV 505.wav
Peak level 72.1 % Extraction speed 2.7 X Track quality 100.0 % Test CRC 601E3500 Copy CRC 601E3500 Accurately ripped (confidence 2) [7532E849] (AR v2) Copy OK
Track 3
Filename T:\Scene!-Beethoven,Haydn,Mendelssohn,Mozart-Karg,Arcangelo,Cohen[FLAC-CD]\03.Miseri Noi, Misera Patria Hob. XXIVa;7.wav
Peak level 77.8 % Extraction speed 3.1 X Track quality 100.0 % Test CRC B2B1EB85 Copy CRC B2B1EB85 Accurately ripped (confidence 2) [21589A9D] (AR v2) Copy OK
Track 4
Filename T:\Scene!-Beethoven,Haydn,Mendelssohn,Mozart-Karg,Arcangelo,Cohen[FLAC-CD]\04.Scena di Berenice Hob. XXIVa;10.wav
Peak level 97.5 % Extraction speed 3.5 X Track quality 100.0 % Test CRC B49479E6 Copy CRC B49479E6 Accurately ripped (confidence 2) [6651DDBE] (AR v2) Copy OK
Track 5
Filename T:\Scene!-Beethoven,Haydn,Mendelssohn,Mozart-Karg,Arcangelo,Cohen[FLAC-CD]\05.Misera Dove Son - Ah! Non Son'io Che Parlo KV 369.wav
Peak level 82.9 % Extraction speed 3.6 X Track quality 100.0 % Test CRC FF8CCBB9 Copy CRC FF8CCBB9 Accurately ripped (confidence 2) [211B4398] (AR v2) Copy OK
Track 6
Filename T:\Scene!-Beethoven,Haydn,Mendelssohn,Mozart-Karg,Arcangelo,Cohen[FLAC-CD]\06.Infelice Pensier - Ah, Ritorna Età Dell'oro op. 94 (1. Fassung).wav
Peak level 86.0 % Extraction speed 4.1 X Track quality 100.0 % Test CRC 5EA315F3 Copy CRC 5EA315F3 Accurately ripped (confidence 2) [F309DC15] (AR v2) Copy OK
All tracks accurately ripped
No errors occurred
End of status report
==== Log checksum E0477725C640F7D4ACCB4E7261E87738195DD4C7A2A1BC6F2CA6D4DA9B847CC3 ====

Содержание индексной карты (CUE.)

REM GENRE OperaREM DATE 2015REM DISCID 4D0F0606REM COMMENT "ExactAudioCopy v1.0b3"CATALOG 0885470006468PERFORMER "Christiane Karg, Arcangelo, Jonathan Cohen"TITLE "Christiane Karg Scene!"FILE "01.Ah Perfido! op. 65.wav" WAVE TRACK 01 AUDIO TITLE "Ah Perfido! op. 65" PERFORMER "Christiane Karg, Arcangelo, Jonathan Cohen" ISRC DES381507001 INDEX 01 00:00:00FILE "02.Ch'io Mi Scordi Di Te - Non Temer, Amato Bene KV 505.wav" WAVE TRACK 02 AUDIO TITLE "Ch'io Mi Scordi Di Te? - Non Temer, Amato Bene KV 505" PERFORMER "Christiane Karg, Arcangelo, Jonathan Cohen" ISRC DES381507002 INDEX 01 00:00:00FILE "03.Miseri Noi, Misera Patria Hob. XXIVa;7.wav" WAVE TRACK 03 AUDIO TITLE "Miseri Noi, Misera Patria Hob. XXIVa;7" PERFORMER "Christiane Karg, Arcangelo, Jonathan Cohen" ISRC DES381507003 INDEX 01 00:00:00FILE "04.Scena di Berenice Hob. XXIVa;10.wav" WAVE TRACK 04 AUDIO TITLE "Scena di Berenice Hob. XXIVa;10" PERFORMER "Christiane Karg, Arcangelo, Jonathan Cohen" ISRC DES381507004 INDEX 01 00:00:00FILE "05.Misera Dove Son - Ah! Non Son'io Che Parlo KV 369.wav" WAVE TRACK 05 AUDIO TITLE "Misera Dove Son - Ah! Non Son'io Che Parlo KV 369" PERFORMER "Christiane Karg, Arcangelo, Jonathan Cohen" ISRC DES381507005 INDEX 01 00:00:00FILE "06.Infelice Pensier - Ah, Ritorna Etа Dell'oro op. 94 (1. Fassung).wav" WAVE TRACK 06 AUDIO TITLE "Infelice Pensier - Ah, Ritorna Etа Dell'oro op. 94 (1. Fassung)" PERFORMER "Christiane Karg, Arcangelo, Jonathan Cohen" ISRC DES381507006 INDEX 01 00:00:00



Показать сообщения:    

Текущее время: 04-Дек 06:53

Часовой пояс: UTC + 3


Вы не можете начинать темы
Вы не можете отвечать на сообщения
Вы не можете редактировать свои сообщения
Вы не можете удалять свои сообщения
Вы не можете голосовать в опросах
Вы не можете прикреплять файлы к сообщениям
Вы не можете скачивать файлы