Рассел Брэнд: Второе пришествие / Brand: A Second Coming (Онди Тимонер / Ondi Timoner) [2015, США, документальный, DVDRip] + Sub Rus + Original Eng


Статистика раздачи [Обновить пиров]
Размер:  991 MB   |    Зарегистрирован:  1 год   |    Скачан:  0 раз

Полного источника не было: Никогда

Личеров:  5  [  0 KB/s  ]   Подробная статистика пиров
 
   
 
 
 

[Цитировать]

Рассел Брэнд: Второе пришествие / Brand: A Second Coming
Страна: США
Жанр: документальный
Год выпуска: 2015
Продолжительность: 01:44:25
Перевод: Субтитры
Cубтитры: русские
Оригинальная аудиодорожка: английский
Режиссер: Онди Тимонер / Ondi Timoner
В ролях: Рассел Брэнд/Russell Brand, Саймон Амстелл/Simon Amstell, Элиа Диаз/Elia Diaz, Шепард Фейри/Shepard Fairey, Ноэль Галлахер/Noel Gallagher, Дэвид Линч/David Lynch, Стивен Мерчант/Stephen Merchant, Мэтт Морган/Matt Morgan, Джон Ноэль/John Noel, Джереми Пэксман/Jeremy Paxman и др.
Описание:
Хроника уникального перерождения комика Расселла Брэнда из голливудского селебрити в активиста-левака
Творческий и жизненный путь, проделанный 40-летним Расселлом Брэндом, удивителен. Еще пару лет назад его знали как стэндапера-беспредельщика, скабрезного ведущего церемоний MTV, бойфренда/мужа/бывшего мужа поп-звезды Кэти Перри и весьма однообразного голливудского актера. Брэнд-2015 – совсем другая птица: общественный мыслитель и комментатор, пославший к чертям Голливуд (вместе с Кэти Перри), ведущий язвительного интернет-шоу The Trews, автор подрывного фолианта «Revolution», организатор соцпроектов в пользу обездоленных, энтузиаст перераспределения капитала и беспощадный критик той самой группы однопроцентников, в которую ему посчастливилось войти в прошлых главах собственной судьбы.
Дважды лауреатка «Сандэнса» Онди Тимонер уже имеет немалый опыт запечатления на пленку будней бешеных креативных харизматиков: на ее счету, как минимум, двойной портрет звезд инди-рока Антона Ньюкома и Кортни Тэйлор-Тэйлора в фильме «Dig!» (2004). На сей раз дуализм характеров и мировоззрений бушует внутри одного-единственного героя – самого Брэнда, которого зрители фильма увидят в самых разнообразных – взаимоисключающих! – ситуациях: выступающим со стэндапом, принимающим наркотики, занимающимся кундалини-йогой, глаголящим на демонстрациях, интервьюирующим Линча и Тайсона и дающим интервью ведущему экономического шоу Russia Today Максу Кайзеру. Свою лепту в дорисовку портрета комика-активиста вносят его закадычные друзья Ноэл Галлахер и Джонатан Росс – ведущий популярного ток-шоу на канале ITV – и прочая знаменитая публика, а также родители героя. В результате тех, кто не подозревал об интеллектуальной трансформации некогда одиозного таблоидного персонажа, ждет настоящий культурный шок.
Доп. информация: Награды и фестивали:
Фестиваль независимого кино в Эшленде – премия No Limits
Перевод: Abris.
Сэмпл: http://multi-up.com/1075140
Качество видео: DVDRip
Формат видео: AVI
Видео: XviD at 1186 kbps, 0.215 pit/pix, 640x360 (16:9) at 23,976 fps
Аудио: MPEG Layer 3 at 128 kbps, 2 ch, 48 kHz
Формат субтитров: softsub (SRT)

MediaInfo

Общее
Полное имя : Brand A Second Coming (2015).avi
Формат : AVI
Формат/Информация : Audio Video Interleave
Размер файла : 991 Мбайт
Продолжительность : 1 ч. 44 м.
Общий поток : 1326 Кбит/сек
Программа кодирования : Lavf55.7.100
Видео
Идентификатор : 0
Формат : xvid
Идентификатор кодека : xvid
Продолжительность : 1 ч. 44 м.
Битрейт : 1186 Кбит/сек
Ширина : 640 пикселей
Высота : 360 пикселей
Соотношение сторон : 16:9
Частота кадров : 23,976 кадра/сек
Бит/(Пиксели*Кадры) : 0.215
Размер потока : 886 Мбайт (89%)
Аудио
Идентификатор : 1
Формат : MPEG Audio
Версия формата : Version 1
Профиль формата : Layer 3
Режим : Joint stereo
Расширение режима : MS Stereo
Идентификатор кодека : 55
Идентификатор кодека/Подсказка : MP3
Продолжительность : 1 ч. 44 м.
Вид битрейта : Постоянный
Битрейт : 128 Кбит/сек
Каналы : 2 канала
Частота : 48,0 КГц
Метод сжатия : С потерями
Размер потока : 95,6 Мбайт (10%)
Выравнивание : Соединение по промежуткам
Продолжительность промежутка : 24 мс. (0,58 видеокадр)

Фрагмент субтитров

1
00:00:18,143 --> 00:00:22,048
Думаете, кто-то вроде Брэнда
может свергнуть правительство?
2
00:00:22,372 --> 00:00:26,803
Глупый вопрос. Это как
спрашивать: "Он Мессия?"
3
00:00:27,109 --> 00:00:30,990
Нет. Он непослушный мальчишка.
4
00:00:31,782 --> 00:00:35,803
Рассел Брэнд
5
00:00:37,704 --> 00:00:39,514
2 минуты, Расс.
6
00:00:43,558 --> 00:00:44,673
Ванная
7
00:00:50,593 --> 00:00:53,805
Боже, сделай меня
каналом своей гармонии.
8
00:00:54,131 --> 00:00:57,181
Чтобы туда, где ненависть,
я приносил любовь,
9
00:00:57,493 --> 00:01:00,973
туда, где ложь, - истину,
10
00:01:01,359 --> 00:01:04,628
туда, где отчаяние, - надежду.
11
00:01:04,932 --> 00:01:08,207
Пусть я буду нуждаться,
а не расслабляться
12
00:01:08,508 --> 00:01:10,998
или кого-то расслаблять.
13
00:01:11,569 --> 00:01:14,507
Позволь мне любить,
а не быть предметом любви.
14
00:01:14,840 --> 00:01:16,344
Эта гармония существует.
15
00:01:16,644 --> 00:01:20,219
Чтобы она пришла,
нужно открыться,
16
00:01:20,521 --> 00:01:23,136
выйти на связь, за грань,
за свои пределы.
17
00:01:23,490 --> 00:01:25,820
Я пытался сделать это всю жизнь.
18
00:01:26,154 --> 00:01:29,484
Потерять рассудок, милость,
чувство, что я недостаточно хорош,
19
00:01:29,833 --> 00:01:32,348
что я один и никогда не буду
счастлив и любим.
20
00:01:32,676 --> 00:01:36,328
В детстве моими богами были
шоколад и телевидение.

Скриншот c названием фильма

Скриншоты

[teatrix.ru].t10692.torrent 
Торрент: Зарегистрирован [ 2015-11-12 13:45 ] · A34A9EE04A9ED7AB7A6679F6C4470C124B4BEF8D

Скачать .torrent

Скачать

20 KB

Статус: проверено
Скачан: 0 раз
Размер: 991 MB
terms.php



Быстрый ответ

Имя:

      
Для отправки сообщений необходимо включить JavaScript
Показать сообщения:    

Текущее время: 05-Дек 05:26

Часовой пояс: UTC + 3


Вы можете начинать темы
Вы можете отвечать на сообщения
Вы не можете редактировать свои сообщения
Вы не можете удалять свои сообщения
Вы не можете голосовать в опросах
Вы не можете прикреплять файлы к сообщениям
Вы можете скачивать файлы