Близняшки с Улицы Заката / Les bessones del Carrer de Ponent (Марк Риба, Анна Соланас / Marc Riba, Anna Solanas) [2010, Испания, авторская анимация, триллер, WEBRip-AVC]


 

[Цитировать]

Близняшки с Улицы Заката / Les bessones del Carrer de Ponent
Страна: Испания
Жанр: авторская анимация, триллер
Год выпуска: 2010
Продолжительность: 00:11:55
Перевод: не требуется
Cубтитры: нет
Режиссёры: Марк Риба, Анна Соланас / Marc Riba, Anna Solanas
Описание: Старушки-близняшки Энрикета и Рамонета, проживающие в Барселоне на Улице Заката - 17а, торгуют мазями, эликсирами и припарками, которых не купишь в аптеках. А ещё они похищают детей.
Доп. информация: Best Short Film - Gaudí Award (2011)
Качество видео: WEBRip-AVC
Формат видео: MP4
Видео: 748 kbps, 640х336 (1.905), 25.000 fps, AVC (High@L3.1)
Аудио: 103 kbps, 44.1 kHz, 2 channels, AAC (LC)

MediaInfo

General
Complete name : Les bessones del Carrer de Ponent (2010).mp4
Format : MPEG-4
Format profile : Base Media
Codec ID : isom
File size : 72.9 MiB
Duration : 11mn 55s
Overall bit rate mode : Variable
Overall bit rate : 855 Kbps
Encoded date : UTC 2010-08-08 15:16:20
Tagged date : UTC 2010-08-09 15:16:22
Video
ID : 1
Format : AVC
Format/Info : Advanced Video Codec
Format profile : High@L3.1
Format settings, CABAC : Yes
Format settings, ReFrames : 4 frames
Codec ID : avc1
Codec ID/Info : Advanced Video Coding
Duration : 11mn 55s
Bit rate : 748 Kbps
Maximum bit rate : 2 332 Kbps
Width : 640 pixels
Height : 336 pixels
Display aspect ratio : 1.905
Frame rate mode : Constant
Frame rate : 25.000 fps
Color space : YUV
Chroma subsampling : 4:2:0
Bit depth : 8 bits
Scan type : Progressive
Bits/(Pixel*Frame) : 0.139
Stream size : 63.8 MiB (87%)
Writing library : Vimeo Encoder
Encoded date : UTC 2010-08-08 15:16:20
Tagged date : UTC 2010-08-08 15:16:21
Audio
ID : 2
Format : AAC
Format/Info : Advanced Audio Codec
Format profile : LC
Codec ID : 40
Duration : 11mn 55s
Bit rate mode : Variable
Bit rate : 103 Kbps
Maximum bit rate : 145 Kbps
Channel(s) : 2 channels
Channel positions : Front: L R
Sampling rate : 44.1 KHz
Compression mode : Lossy
Stream size : 8.81 MiB (12%)
Encoded date : UTC 2010-08-08 15:16:21
Tagged date : UTC 2010-08-08 15:16:21

Скриншот c названием фильма

Скриншоты




Показать сообщения:    

Текущее время: 11-Дек 11:05

Часовой пояс: UTC + 3


Вы не можете начинать темы
Вы не можете отвечать на сообщения
Вы не можете редактировать свои сообщения
Вы не можете удалять свои сообщения
Вы не можете голосовать в опросах
Вы не можете прикреплять файлы к сообщениям
Вы не можете скачивать файлы