Ты, живущий! / Du levande / You, the Living (Рой Андерссон / Roy Andersson) [2007, Швеция, Германия, Франция, Дания, Норвегия, драма, комедия, абсурд, BDRip] DVO + AVO + Sub (Rus, Eng) + Original Swe


 

[Цитировать]

Ты, живущий! / Du levande / You, the Living
Страна: Швеция, Германия, Франция, Дания, Норвегия
Жанр: драма, комедия, абсурд
Год выпуска: 2007
Продолжительность: 01:33:36
Перевод №1: Профессиональный (двухголосый закадровый)
Перевод №2: Авторский (одноголосый закадровый) А.Алексеев
Cубтитры: русские (Илья М.), английские
Оригинальная аудиодорожка: шведский
Режиссер: Рой Андерссон / Roy Andersson
В ролях: Джессика Лундберг, Элизабет Хеландер, Бйорн Инглунд, Лейф Ларссон, Олле Олсон, Бригитта Перссон, Кемаль Шенер, Хакан Ангсер, Рольф Энгстрем, Эрик Бекман
О фильме: Фильм режиссера «Песен со второго этажа» - про шведскую модель конца света. Фильм о человеке, о его величии и его нищете, его радости и печали, его уверенности в себе и страхе. О человеке, над которым нам хочется смеяться и одновременно плакать. Это просто трагическая комедия или комическая трагедия о нас.
Доп. информация: http://www.imdb.com/title/tt0445336/
Исходник: http://teatrix.ru/viewtopic.php?t=6585
Сэмпл: http://sendfile.su/1173163
Качество видео: BDRip
Формат видео: AVI
Видео: 720x432 (1.67:1), 24 fps, XviD build 73 ~2229 kbps avg, 0.29 bit/pixel
Аудио #1: 48 kHz, AC3 Dolby Digital, 3/2 (L,C,R,l,r) + LFE ch, ~448 kbps avg - DVO
Аудио #2: 48 kHz, AC3 Dolby Digital, 2/0 (L,R) ch, ~192 kbps avg - Алексеев
Аудио #3: 48 kHz, AC3 Dolby Digital, 3/2 (L,C,R,l,r) + LFE ch, ~448 kbps avg - Original
Формат субтитров: softsub (SRT)

MediaInfo

Общее
Полное имя : H:\Фильмы\Du.levande.2007.BDRip\Du.levande.2007.BDRip.avi
Формат : AVI
Формат/Информация : Audio Video Interleave
Профиль формата : OpenDML
Размер файла : 2,18 Гбайт
Продолжительность : 1 ч. 33 м.
Общий поток : 3341 Кбит/сек
Программа кодирования : VirtualDubMod 1.5.10.2 (build 2540/release)
Библиотека кодирования : VirtualDubMod build 2540/release
Авторское право : rip by Judas_X
Видео
Идентификатор : 0
Формат : MPEG-4 Visual
Профиль формата : Advanced Simple@L5
Параметр BVOP формата : 1
Параметр QPel формата : Нет
Параметр GMC формата : Без точки перехода
Параметр матрицы формата : Выборочная
Идентификатор кодека : XVID
Идентификатор кодека/Подсказка : XviD
Продолжительность : 1 ч. 33 м.
Битрейт : 2229 Кбит/сек
Ширина : 720 пикселей
Высота : 432 пикселя
Соотношение сторон : 5:3
Частота кадров : 24,000 кадра/сек
Цветовое пространство : YUV
Субдискретизация насыщенности : 4:2:0
Битовая глубина : 8 бит
Тип развёртки : Прогрессивная
Метод сжатия : С потерями
Бит/(Пиксели*Кадры) : 0.299
Размер потока : 1,46 Гбайт (67%)
Библиотека кодирования : XviD 73
Аудио #1
Идентификатор : 1
Формат : AC-3
Формат/Информация : Audio Coding 3
Расширение режима : CM (complete main)
Параметр Endianness формата : Big
Идентификатор кодека : 2000
Продолжительность : 1 ч. 33 м.
Вид битрейта : Постоянный
Битрейт : 448 Кбит/сек
Каналы : 6 каналов
Расположение каналов : Front: L C R, Side: L R, LFE
Частота : 48,0 КГц
Метод сжатия : С потерями
Размер потока : 300 Мбайт (13%)
Выравнивание : Разделение по промежуткам
Продолжительность промежутка : 42 мс. (1,00 видеокадр)
Время предзагрузки промежутка : 500 мс.
Аудио #2
Идентификатор : 2
Формат : AC-3
Формат/Информация : Audio Coding 3
Расширение режима : CM (complete main)
Параметр Endianness формата : Big
Идентификатор кодека : 2000
Продолжительность : 1 ч. 33 м.
Вид битрейта : Постоянный
Битрейт : 192 Кбит/сек
Каналы : 2 канала
Расположение каналов : Front: L R
Частота : 48,0 КГц
Метод сжатия : С потерями
Размер потока : 129 Мбайт (6%)
Выравнивание : Разделение по промежуткам
Продолжительность промежутка : 42 мс. (1,00 видеокадр)
Время предзагрузки промежутка : 500 мс.
Аудио #3
Идентификатор : 3
Формат : AC-3
Формат/Информация : Audio Coding 3
Расширение режима : CM (complete main)
Параметр Endianness формата : Big
Идентификатор кодека : 2000
Продолжительность : 1 ч. 33 м.
Вид битрейта : Постоянный
Битрейт : 448 Кбит/сек
Каналы : 6 каналов
Расположение каналов : Front: L C R, Side: L R, LFE
Частота : 48,0 КГц
Метод сжатия : С потерями
Размер потока : 300 Мбайт (13%)
Выравнивание : Разделение по промежуткам
Продолжительность промежутка : 42 мс. (1,00 видеокадр)
Время предзагрузки промежутка : 500 мс.



Показать сообщения:    

Текущее время: 09-Дек 22:21

Часовой пояс: UTC + 3


Вы не можете начинать темы
Вы не можете отвечать на сообщения
Вы не можете редактировать свои сообщения
Вы не можете удалять свои сообщения
Вы не можете голосовать в опросах
Вы не можете прикреплять файлы к сообщениям
Вы не можете скачивать файлы