Я и мой брат / Me and my brother (Роберт Фрэнк / Robert Frank) [1969, США, драма, независимый фильм, DVDRip] + Sub Rus / Eng + Original Eng


Статистика раздачи [Обновить пиров]
Размер:  1.37 GB   |    Зарегистрирован:  1 год   |    Скачан:  0 раз
Сидов:  1  [  0 KB/s  ]   Личеров:  2  [  0 KB/s  ]   Подробная статистика пиров
 
   
 
 
 

[Цитировать]

Я и мой брат / Me and my brother
Страна: США
Жанр: драма, независимый фильм
Год выпуска: 1969
Продолжительность: 01:25:08
Перевод: Субтитры
Cубтитры: русские, английские
Оригинальная аудиодорожка: английский
Режиссер: Роберт Фрэнк / Robert Frank
В ролях: Джулиус Орловски/Julius Orlovsky, Питер Орловски/Peter Orlovsky, Джон Коу/John Coe, Аллен Гинсберг/Allen Ginsberg, Сет Аллен/Seth Allen, Вирджиния Кайсер/Virginia Kiser, Нэнси Фиш/Nancy Fish, Синтия МакАдамс/Cynthia McAdams, Роско Ли Браун/Roscoe Lee Browne, Мария Туччи/Maria Tucci, Кристофер Уокен/Christopher Walken и др.
Описание: Американский фотограф и режиссер Роберт Франк ставит себе задачу снять историю двух братьев - Питера и Джулиуса Орловски. Один из них поэт-битник, любовник Аллена Гинзберга. О другом известно, что он проявляет интерес к искусству, и что последние 13 лет он провёл в психиатрических больницах с диагнозом шизофрения. Джулиус живет вместе с Питером и Алленом, которые берут его с собой в путешествия, на поэтические чтения и прочие события тусовки битников. Из-за того, что Джулиуса не всегда получается снять, Франк решает нанять актёров, которые периодически появляются в фильме вместо братьев Орловски, Аллена и его самого. Франк старается и передать процессы, происходящие в психике, и запечатлеть спонтанное развитие событий, и следовать сценарию Сэма Шеппарда, и отрефлексировать природу кино и ход съемок фильма, и вырваться за пределы истории Питера и Джулиуса. В итоге у него получается сложная формальная структура, в которой переплетены документальные, постановочные и сымпровизированные сцены.
Фильм входит в цикл кинопоказов "Бред очарования гипнотического", подготовленного в рамках программы международного фестиваля активистского искусства «МедиаУдар», где кино станет поводом к дискуссии и поможет расширить горизонт восприятия нормативности и субъективности, психического расстройства, оказания психиатрической помощи и т.д. Выбранные для просмотра фильмы сгруппированы в соответствии с видом опыта: опыт художественной рефлексии («Я и мой брат»), опыт действия и взаимодействия пациентов, сотрудников больницы, горожан, городской администрации, художников, социальных работников («Сады Авеля», «Полёт», «Всё малое», «Мин Танака в клинике La Borde»). Действия разворачиваются на территориях стран так называемого антипсихиатрического пояса: Италия, Франция, США.
Специально для кинолектория фильмы были впервые переведены на русский язык и субтитрованы.
Организаторы: София Пигалова и Анастасия Дмитриевская.

Его тут нет – «Я и мой брат» Роберта Франка. Перевод: Антон Пинчук, София Пигалова

http://cineticle.com/texts/1206-ego-tut-net-ya-i-moi-brat.html
Доп. информация: перевод Abris и Анастасия Дмитриевская.
Сэмпл: http://multi-up.com/1075201
Качество видео: DVDRip
Формат видео: AVI
Видео: XviD at 2069 kbps, 0.254 bit/pix, 656x496 (4:3) at 25,000 fps
Аудио: AC-3 at 224 kbps, 2 ch, 48 kHz
Формат субтитров: softsub (SRT)

MediaInfo

Общее
Полное имя : Robert Frank_Me and My Brother (1969).avi
Формат : AVI
Формат/Информация : Audio Video Interleave
Размер файла : 1,37 Гбайт
Продолжительность : 1 ч. 25 м.
Общий поток : 2300 Кбит/сек
Программа кодирования : VirtualDubMod 1.5.4.1 (build 2178/release)
Библиотека кодирования : VirtualDubMod build 2178/release
Видео
Идентификатор : 0
Формат : MPEG-4 Visual
Профиль формата : Advanced Simple@L5
Параметр BVOP формата : 1
Параметр QPel формата : Нет
Параметр GMC формата : Без точки перехода
Параметр матрицы формата : Выборочная
Идентификатор кодека : XVID
Идентификатор кодека/Подсказка : XviD
Продолжительность : 1 ч. 25 м.
Битрейт : 2069 Кбит/сек
Ширина : 656 пикселей
Высота : 496 пикселей
Соотношение сторон : 4:3
Частота кадров : 25,000 кадров/сек
Цветовое пространство : YUV
Субдискретизация насыщенности : 4:2:0
Битовая глубина : 8 бит
Тип развёртки : Прогрессивная
Метод сжатия : С потерями
Бит/(Пиксели*Кадры) : 0.254
Размер потока : 1,23 Гбайт (90%)
Библиотека кодирования : XviD 1.1.2 (UTC 2006-11-01)
Аудио
Идентификатор : 1
Формат : AC-3
Формат/Информация : Audio Coding 3
Расширение режима : CM (complete main)
Параметр Endianness формата : Big
Идентификатор кодека : 2000
Продолжительность : 1 ч. 25 м.
Вид битрейта : Постоянный
Битрейт : 224 Кбит/сек
Каналы : 2 канала
Расположение каналов : Front: L R
Частота : 48,0 КГц
Метод сжатия : С потерями
Размер потока : 136 Мбайт (10%)
Выравнивание : Разделение по промежуткам
Продолжительность промежутка : 96 мс. (2,40 видеокадра)
Время предзагрузки промежутка : 96 мс.
Язык : Deutsch

Фрагмент субтитров

1
00:00:21,031 --> 00:00:23,831
Осторожно, машины, Джулиус.
2
00:00:26,217 --> 00:00:29,766
Джулиус, ты идешь или нет?
3
00:00:29,974 --> 00:00:32,077
Пойдём.
4
00:00:32,377 --> 00:00:34,378
Пошли, Джулиус, это не трудно.
5
00:00:34,732 --> 00:00:36,207
Знак говорит "Можно идти",
6
00:00:36,564 --> 00:00:40,334
Так что - иди. Иди, Джулиус.
Давай, пойдём.
7
00:00:42,064 --> 00:00:45,513
Времена меняются.
8
00:00:45,835 --> 00:00:51,607
Когда как не в 68-ом,
можно это попробовать?
9
00:00:51,952 --> 00:00:54,876
Сексуальный эксперимент.
10
00:00:55,172 --> 00:00:57,667
Это вам не препарировать лягушек
11
00:00:57,972 --> 00:01:03,186
и разглядывать их под микроскопом
на большом увеличении.
12
00:01:03,502 --> 00:01:07,147
Это секс перед камерой!
13
00:01:07,677 --> 00:01:11,407
Каждую секунду, каждую минуту,
14
00:01:12,023 --> 00:01:14,018
каждое... каждое.
15
00:01:15,026 --> 00:01:18,041
Давай, Джулиус,
нам нужно туда попасть.
16
00:01:18,342 --> 00:01:22,216
Они снимут, как мы будем
заниматься любовью.
17
00:01:22,595 --> 00:01:24,999
Я возбужден.
18
00:01:26,949 --> 00:01:29,729
Вот такая идея.
Прекрасная идея.
19
00:01:30,008 --> 00:01:33,774
Документация полового акта
20
00:01:33,952 --> 00:01:35,924
это первый...

Скриншот c названием фильма

Скриншоты

[teatrix.ru].t10715.torrent 
Торрент: Зарегистрирован [ 2015-11-13 05:50 ] · 11D02DC55EA04B0F26BFCF9BE677A8CDEBEBB86F

Скачать .torrent

Скачать

14 KB

Статус: проверено
Скачан: 0 раз
Размер: 1.37 GB
terms.php



Быстрый ответ

Имя:

      
Для отправки сообщений необходимо включить JavaScript
Показать сообщения:    

Текущее время: 03-Дек 22:46

Часовой пояс: UTC + 3


Вы можете начинать темы
Вы можете отвечать на сообщения
Вы не можете редактировать свои сообщения
Вы не можете удалять свои сообщения
Вы не можете голосовать в опросах
Вы не можете прикреплять файлы к сообщениям
Вы можете скачивать файлы