Священная гора / The Holy Mountain (Алехандро Ходоровски / Alexandro Jodorowsky) [1973, США, Мексика, фантастика, фэнтези, комедия, приключения, BDRemux 1080p] AVO (Алексеев) + VO + Sub Rus, Eng + Original Eng


 

[Цитировать]

Священная гора / The Holy Mountain
Год выпуска: 1973
Страна: США, Мексика
Жанр: фантастика, фэнтези, комедия, приключения
Продолжительность: 1:53:28
Перевод: Авторский (одноголосый) Антон Алексеев
Перевод: Любительский (одноголосый)
Субтитры: русские, английские
Режиссер: Алехандро Ходоровски / Alexandro Jodorowsky
В ролях: Алехандро Ходоровский, Орасио Салинас, Замира Саундерс, Хуан Феррара, Адриана Пейдж, Берт Клайнер, Валери Ходоровски, Никки Николс, Ричард Рутовски, Луис Ломели, Ана Де Саде, Chucho-Chucho, Летиция Роблз, Конни Де Ла Мора, Дэвид Капралик, Жаклин Вольтер, Пабло Ледер, Бобби Камерон, Re Debris, Guadalupe Perullero, Хосе Антонио Алькараз, Эктор Ортега, Роберт Тэйчер, Гарри Кон, Manuel Dondé, Ramiro Chávez Gochicoa, Басилио Гонзалез, Марсела Лопез Рей, Джейн Митчел, Marcela Ponzarelli, Дэвид Силва
Описание: Христос освобождается от оков и оказывается в современном городе, средоточии человеческих пороков, культа смерти и секса. Здесь он и попадает в таинственную эзотерическую школу магов. Там же оказываются и молодые развращенные жизнью персонажи со всей Солнечной системы. Гуру и его ученики отправляются к Священной горе, где живут девять мудрецов, знающих секрет бессмертия…
Качество: BDRemux
Формат: MKV
Видео: MPEG-4 AVC Video / 28276 kbps / 1080p / 23,976 fps / 16:9 / High Profile 4.1
Аудио: Russian / Dolby Digital Audio / 2.0 / 48 kHz / 192 kbps
Аудио: Russian / Dolby Digital Audio / 2.0 / 48 kHz / 192 kbps [Алексеев]
Аудио: English / DTS-HD Master Audio / 5.1 / 48 kHz / 3335 kbps / 24-bit (DTS Core: 5.1 / 48 kHz / 1509 kbps / 24-bit)

MI

General
UniqueID : 181746533094160488204692196449979198261 (0x88BB1BE9E108C9F38A4D4A67D07BEB35)
Complete name : J:\The.Holy.Mountain.1973.1080p.Bluray.AVC.Remux.mkv
Format : Matroska
File size : 25.3 GiB
Duration : 1h 53mn
Overall bit rate : 31.9 Mbps
Movie name : The.Holy.Mountain.1973.1080p.Bluray.AVC.Remux
Encoded date : UTC 2011-04-28 12:20:05
Writing application : mkvmerge v3.2.0 ('Beginnings') built on Feb 12 2010 16:46:17
Writing library : libebml v0.7.9 + libmatroska v0.8.1
Video
ID : 1
Format : AVC
Format/Info : Advanced Video Codec
Format profile : High@L4.1
Format settings, CABAC : Yes
Format settings, ReFrames : 4 frames
Codec ID : V_MPEG4/ISO/AVC
Duration : 1h 53mn
Bit rate mode : Variable
Maximum bit rate : 36.0 Mbps
Width : 1 920 pixels
Height : 1 080 pixels
Display aspect ratio : 16:9
Frame rate : 23.976 fps
Standard : NTSC
Color space : YUV
Chroma subsampling : 4:2:0
Bit depth : 8 bits
Scan type : Progressive
Title : uralmix
Color primaries : BT.709-5, BT.1361, IEC 61966-2-4, SMPTE RP177
Transfer characteristics : BT.709-5, BT.1361
Matrix coefficients : BT.709-5, BT.1361, IEC 61966-2-4 709, SMPTE RP177
Audio #1
ID : 2
Format : AC-3
Format/Info : Audio Coding 3
Mode extension : CM (complete main)
Codec ID : A_AC3
Duration : 1h 53mn
Bit rate mode : Constant
Bit rate : 192 Kbps
Channel(s) : 2 channels
Channel positions : Front: L R
Sampling rate : 48.0 KHz
Bit depth : 16 bits
Compression mode : Lossy
Stream size : 156 MiB (1%)
Title : одноголосый
Language : Russian
Audio #2
ID : 3
Format : AC-3
Format/Info : Audio Coding 3
Mode extension : CM (complete main)
Codec ID : A_AC3
Duration : 1h 53mn
Bit rate mode : Constant
Bit rate : 192 Kbps
Channel(s) : 2 channels
Channel positions : Front: L R
Sampling rate : 48.0 KHz
Bit depth : 16 bits
Compression mode : Lossy
Stream size : 156 MiB (1%)
Title : авторский - Антон Алексеев
Language : Russian
Audio #3
ID : 4
Format : DTS
Format/Info : Digital Theater Systems
Format profile : MA
Codec ID : A_DTS
Duration : 1h 53mn
Bit rate mode : Variable
Channel(s) : 6 channels
Channel positions : Front: L C R, Side: L R, LFE
Sampling rate : 48.0 KHz
Bit depth : 24 bits
Compression mode : Lossy
Language : English
Text #1
ID : 5
Format : UTF-8
Codec ID : S_TEXT/UTF8
Codec ID/Info : UTF-8 Plain Text
Language : Russian
Text #2
ID : 6
Format : UTF-8
Codec ID : S_TEXT/UTF8
Codec ID/Info : UTF-8 Plain Text
Language : English

Скриншоты




Показать сообщения:    

Текущее время: 04-Дек 23:23

Часовой пояс: UTC + 3


Вы не можете начинать темы
Вы не можете отвечать на сообщения
Вы не можете редактировать свои сообщения
Вы не можете удалять свои сообщения
Вы не можете голосовать в опросах
Вы не можете прикреплять файлы к сообщениям
Вы не можете скачивать файлы