(Orchestral) Anton Bruckner - Symphonie Nr.5 (Tapiola Sinfonietta - Mario Venzago) - 2014, FLAC (image+.cue) lossless


 

[Цитировать]

Anton Bruckner
Symphonie 5
Tapiola Sinfonietta
Mario Venzago-
-
- Жанр: Orchestral
Страна-производитель диска: Germany
Год издания диска: 2014
Издатель (лейбл): CPO
Дата записи: 10-12.03.2014
Аудиокодек: FLAC
Тип рипа: image+.cue
Битрейт аудио: lossless
Продолжительность: 59'59''
Источник: собственный рип
Наличие сканов в содержимом раздачи: да
Треклист:
A.Bruckner - Symphonie Nr.5:
[01] I. Adagio - Allegro
[02] II. Adagio. Sehr langsam
[03] III. Scherzo – Trio
[04] IV. Adagio – Allegro moderato
Исполнители:
Tapiola Sinfonietta - Mario Venzago

Лог создания рипа

Exact Audio Copy V1.0 beta 4 from 7. December 2014
EAC extraction logfile from 8. August 2015, 20:14
Tapiola Sinfonietta - Mario Venzago / Bruckner 5
Used drive : PHILIPS PCRW804 Adapter: 1 ID: 1
Read mode : SecureUtilize accurate stream : YesDefeat audio cache : YesMake use of C2 pointers : No
Read offset correction : -436Overread into Lead-In and Lead-Out : NoFill up missing offset samples with silence : YesDelete leading and trailing silent blocks : NoNull samples used in CRC calculations : YesUsed interface : Native Win32 interface for Win NT & 2000
Used output format : User Defined EncoderSelected bitrate : 1024 kBit/sQuality : HighAdd ID3 tag : NoCommand line compressor : C:\Program Files (x86)\FLAC\flac.exeAdditional command line options : -T "COMMENT=rip by el coronel" -8 -V %source%
TOC of the extracted CD
Track | Start | Length | Start sector | End sector --------------------------------------------------------- 1 | 0:00.00 | 15:55.63 | 0 | 71687 2 | 15:55.63 | 12:13.66 | 71688 | 126728 3 | 28:09.54 | 13:11.42 | 126729 | 186095 4 | 41:21.21 | 18:37.18 | 186096 | 269888
Range status and errors
Selected range
Filename F:\Music\Bruckner 0-9 Venzago\Bruckner 5\CD.wav
Peak level 100.0 % Extraction speed 2.0 X Range quality 100.0 % Test CRC 4B93AC89 Copy CRC 4B93AC89 Copy OK
No errors occurred
AccurateRip summary
Track 1 accurately ripped (confidence 1) [0E941E54] (AR v2)Track 2 accurately ripped (confidence 1) [E8B9BEF5] (AR v2)Track 3 accurately ripped (confidence 1) [93B1524C] (AR v2)Track 4 accurately ripped (confidence 1) [37A61F33] (AR v2)
All tracks accurately ripped
End of status report
---- CUETools DB Plugin V2.1.4
[CTDB TOCID: tGKVn8tGTkbQ8tykzHP44BM4.dI-] disk not present in databaseSubmit result: tGKVn8tGTkbQ8tykzHP44BM4.dI- has been uploaded
==== Log checksum 47977818DADA2DC0396514ECDA221C589532AA7D5B0905421D58D021B14D45BA ====

Содержание индексной карты (.CUE)

REM GENRE ClassicalREM DATE 2014REM DISCID 390E0E04REM COMMENT "ExactAudioCopy v1.0b4"CATALOG 0761203761623PERFORMER "Tapiola Sinfonietta - Mario Venzago"TITLE "Bruckner 5"FILE "CD.flac" WAVE TRACK 01 AUDIO TITLE "I. Adagio - Allegro" PERFORMER "Tapiola Sinfonietta - Mario Venzago" ISRC DEB201461601 INDEX 01 00:00:00 TRACK 02 AUDIO TITLE "II. Adagio. Sehr langsam" PERFORMER "Tapiola Sinfonietta - Mario Venzago" ISRC DEB201461601 INDEX 01 15:55:63 TRACK 03 AUDIO TITLE "III. Scherzo – Trio" PERFORMER "Tapiola Sinfonietta - Mario Venzago" ISRC DEB201461603 INDEX 01 28:09:54 TRACK 04 AUDIO TITLE "IV. Adagio – Allegro moderato" PERFORMER "Tapiola Sinfonietta - Mario Venzago" ISRC DEB201461603 INDEX 01 41:21:21
-Доп. информация: “The present reading does almost entirely without the song element and instead establishes musical discourse. The orchestra speaks and debates as if the instruments were the members of a parliament engaged in serious, sober, and brilliant discussion.” (M.Venzago)



Показать сообщения:    

Текущее время: 04-Дек 23:21

Часовой пояс: UTC + 3


Вы не можете начинать темы
Вы не можете отвечать на сообщения
Вы не можете редактировать свои сообщения
Вы не можете удалять свои сообщения
Вы не можете голосовать в опросах
Вы не можете прикреплять файлы к сообщениям
Вы не можете скачивать файлы