(Classical) Brain Rubbish: Ferrero, Gershwin, Gorb, Lindberg - Swedish Wind Ensemble, Christian Lindberg - 2012, FLAC (image+.cue) lossless


 

[Цитировать]

Brain Rubbish: Ferrero, Gershwin, Gorb, Lindberg - Swedish Wind Ensemble, Christian Lindberg
Жанр: Classical
Страна-производитель диска: Sweden
Год издания диска: 2012
Издатель (лейбл): BIS
Номер по каталогу: BIS-CD-1958
Дата записи: 2007,2010
Аудиокодек: FLAC
Тип рипа: image+.cue
Битрейт аудио: lossless
Продолжительность: 81:16
Источник: собственный рип
Наличие сканов в содержимом раздачи: да
Треклист:
Adam Gorb (b. 1958)
[1]-[5] Yiddish Dances (1997, rev. 2003–04)
Christian Lindberg (b. 1958)
[6] Suite from Galamanta (2009)
George Gershwin (1898–1937)
arr. Mari van Gils
[7] An American in Paris (1928)
Bernardo Adam Ferrero (b. 1942)
arr. Anders Högstedt
[8]-[11] Homenaje a Joaquín Sorolla (1987)
Christian Lindberg
[12] Brain Rubbish (2006–07)
Исполнители:
Swedish Wind Ensemble
Christian Lindberg
conductor

Лог создания рипа

Exact Audio Copy V1.0 beta 3 from 29. August 2011
EAC extraction logfile from 22. March 2015, 14:51
Swedish Wind Ensemble, Christian Lindberg / Brain Rubbish
Used drive : HL-DT-STDVDRAM GU70N Adapter: 0 ID: 0
Read mode : SecureUtilize accurate stream : YesDefeat audio cache : YesMake use of C2 pointers : No
Read offset correction : 48Overread into Lead-In and Lead-Out : NoFill up missing offset samples with silence : YesDelete leading and trailing silent blocks : NoNull samples used in CRC calculations : YesUsed interface : Native Win32 interface for Win NT & 2000
Used output format : User Defined EncoderSelected bitrate : 128 kBit/sQuality : HighAdd ID3 tag : NoCommand line compressor : C:\Program Files (x86)\Exact Audio Copy\Flac\flac.exeAdditional command line options : -V -8 -T "Date=%year%" -T "Genre=%genre%" %source%
TOC of the extracted CD
Track | Start | Length | Start sector | End sector --------------------------------------------------------- 1 | 0:00.00 | 3:13.39 | 0 | 14513 2 | 3:13.39 | 2:19.28 | 14514 | 24966 3 | 5:32.67 | 2:17.05 | 24967 | 35246 4 | 7:49.72 | 3:57.70 | 35247 | 53091 5 | 11:47.67 | 4:35.27 | 53092 | 73743 6 | 16:23.19 | 15:24.53 | 73744 | 143096 7 | 31:47.72 | 18:57.33 | 143097 | 228404 8 | 50:45.30 | 5:45.46 | 228405 | 254325 9 | 56:31.01 | 3:41.51 | 254326 | 270951 10 | 60:12.52 | 4:25.29 | 270952 | 290855 11 | 64:38.06 | 5:35.73 | 290856 | 316053 12 | 70:14.04 | 11:02.14 | 316054 | 365717
Range status and errors
Selected range
Filename C:\temp\BIS-CD-1958 - Brain Rubbish - Swedish Wind Ensemble, Christian Lindberg\Brain Rubbish.wav
Peak level 100.0 % Extraction speed 2.3 X Range quality 100.0 % Test CRC 283D7F14 Copy CRC 283D7F14 Copy OK
No errors occurred
AccurateRip summary
Track 1 accurately ripped (confidence 1) [BFD90340] (AR v2)Track 2 accurately ripped (confidence 1) [B71BF284] (AR v2)Track 3 accurately ripped (confidence 1) [51B0F91D] (AR v2)Track 4 accurately ripped (confidence 1) [83DFEA5F] (AR v2)Track 5 accurately ripped (confidence 1) [C6FC153B] (AR v2)Track 6 accurately ripped (confidence 1) [5537B832] (AR v2)Track 7 accurately ripped (confidence 1) [8E27BB90] (AR v2)Track 8 accurately ripped (confidence 1) [FB676F67] (AR v2)Track 9 accurately ripped (confidence 1) [1384290B] (AR v2)Track 10 accurately ripped (confidence 1) [BE7B0710] (AR v2)Track 11 accurately ripped (confidence 1) [7D56FA21] (AR v2)Track 12 accurately ripped (confidence 1) [9E3911DD] (AR v2)
All tracks accurately ripped
End of status report
==== Log checksum BFE2248B9FA1FFE99F560E19D9B022F0F200EF5409C56B6E9EF030B2CB7FAE5E ====



Показать сообщения:    

Текущее время: 06-Дек 11:15

Часовой пояс: UTC + 3


Вы не можете начинать темы
Вы не можете отвечать на сообщения
Вы не можете редактировать свои сообщения
Вы не можете удалять свои сообщения
Вы не можете голосовать в опросах
Вы не можете прикреплять файлы к сообщениям
Вы не можете скачивать файлы