(Choral music) Les Petits Chanteurs a la Croix de Bois - Reflets de concert - Rodolphe Pierrepont - 1997, FLAC (image+.cue) lossless


Статистика раздачи [Обновить пиров]
Размер:  273 MB   |    Зарегистрирован:  1 год   |    Скачан:  0 раз

Полного источника не было: Никогда

Личеров:  6  [  0 KB/s  ]   Подробная статистика пиров
 
   
 
 
 

[Цитировать]

Les Petits Chanteurs a la Croix de Bois - Reflets de concert
Жанр: Choral music
Страна-производитель диска: France
Год издания диска: 1997
Издатель (лейбл): Polydor
Номер по каталогу: 539 918-2
Аудиокодек: FLAC
Тип рипа: image+.cue
Битрейт аудио: lossless
Продолжительность: 00:45:36
Источник: собственный рип
Наличие сканов в содержимом раздачи: да
Треклист:
01. Cantate domino (Leo Hassler) (2:06)
02. Ave Maria (Rodolphe Pierrepont) (2:46)
03. O memoriale (Giovanni Pieluigi Da Palestrina) (4:45)
04. Laudate dominium (Marc-Antoine Charpentier) (2:53)
05. Il est ne le divin enfant (Traditionnel, Arrgt R. Pierrepont) (2:56)
06. White christmas (Irving Berlin, Arrgt. H. Mac Carthy) (4:01)
07. Les anges dans nos campagnes (Traditionnel, Arrgt Gevaert) (3:10)
08. Joy to the world (Arrgt. R. Pierrepont) (1:29)
09. Waldecho (Helmut Bogenhart) (2:36)
10. Ciucarella (Traditionnel, Arrgt R. Pierrepont) (3:23)
11. Riviere Tanier (Traditionnel, Arrgt R. Pierrepont) (3:26)
12. Sora o a ruite (Traditionnel, Arrgt R. Pierrepont) (3:31)
13. Tece voda tece (Traditionnel, Arrgt R. Pokorny) (1:53)
14. La nuit (Jean-Philippe Rameau, Arrgt J. Noyon) (3:43)
15. Mes jeunes annees (Charles Trenet) (2:57)

Исполнители:
Les Petits Chanteurs a la Croix de Bois (The Little Singers of Paris \ Little Singers of the Wooden Cross)
Direction: Rodolphe Pierrepont

Лог создания рипа

Exact Audio Copy V1.0 beta 3 from 29. August 2011
Отчёт EAC об извлечении, выполненном 5. ноября 2015, 13:27
Les Petits Chanteurs a la Croix de Bois / Reflets de concert
Дисковод: ASUS DRW-1814BL Adapter: 3 ID: 5
Режим чтения : ДостоверностьИспользование точного потока : ДаОтключение кэша аудио : ДаИспользование указателей C2 : Нет
Коррекция смещения при чтении : 6Способность читать области Lead-in и Lead-out : НетЗаполнение пропущенных сэмплов тишиной : ДаУдаление блоков с тишиной в начале и конце : НетПри вычислениях CRC использовались нулевые сэмплы : ДаИнтерфейс : Встроенный Win32-интерфейс для Win NT/2000
Выходной формат : Пользовательский кодировщикВыбранный битрейт : 128 kBit/sКачество : ВысокийДобавление ID3-тега : НетУтилита сжатия : C:\Program Files\Exact Audio Copy\Flac\flac.exeДополнительные параметры : -V -8 -T "Date=%year%" -T "Genre=%genre%" %source%
TOC извлечённого CD
Трек | Старт | Длительность | Начальный сектор | Конечный сектор --------------------------------------------------------------------- 1 | 0:00.00 | 2:06.22 | 0 | 9471 2 | 2:06.22 | 2:45.60 | 9472 | 21906 3 | 4:52.07 | 4:45.08 | 21907 | 43289 4 | 9:37.15 | 2:52.45 | 43290 | 56234 5 | 12:29.60 | 2:55.45 | 56235 | 69404 6 | 15:25.30 | 4:00.52 | 69405 | 87456 7 | 19:26.07 | 3:10.15 | 87457 | 101721 8 | 22:36.22 | 1:29.30 | 101722 | 108426 9 | 24:05.52 | 2:35.68 | 108427 | 120119 10 | 26:41.45 | 3:23.12 | 120120 | 135356 11 | 30:04.57 | 3:26.33 | 135357 | 150839 12 | 33:31.15 | 3:31.15 | 150840 | 166679 13 | 37:02.30 | 1:53.12 | 166680 | 175166 14 | 38:55.42 | 3:43.20 | 175167 | 191911 15 | 42:38.62 | 2:57.00 | 191912 | 205186
Характеристики диапазона извлечения и сообщения об ошибках
Выбранный диапазон
Имя файла C:\Documents and Settings\biotox\Рабочий стол\Новая папка (2)\Les Petits Chanteurs a la Croix de Bois - Reflets de concert.wav
Пиковый уровень 99.2 % Скорость извлечения 7.9 X Качество диапазона 100.0 % CRC теста 5C339D18 CRC копии 5C339D18 Копирование... OK
Ошибок не произошло
AccurateRip: сводка
Трек 1 отсутствует в базе данныхТрек 2 отсутствует в базе данныхТрек 3 отсутствует в базе данныхТрек 4 отсутствует в базе данныхТрек 5 отсутствует в базе данныхТрек 6 отсутствует в базе данныхТрек 7 отсутствует в базе данныхТрек 8 отсутствует в базе данныхТрек 9 отсутствует в базе данныхТрек 10 отсутствует в базе данныхТрек 11 отсутствует в базе данныхТрек 12 отсутствует в базе данныхТрек 13 отсутствует в базе данныхТрек 14 отсутствует в базе данныхТрек 15 отсутствует в базе данных
Ни одного трека нет в базе AccurateRip
Конец отчёта
==== Контрольная сумма отчёта 0F4AA49AED833F7DFB80AAD98F5079F208609B31B40883FA9D5773393F9EEAF6 ====

Замер динамического диапазона

foobar2000 1.2.9 / Замер динамического диапазона (DR) 1.1.1Дата отчёта: 2015-11-13 17:51:38
--------------------------------------------------------------------------------Анализ: Les Petits Chanteurs a la Croix de Bois / Reflets de concert--------------------------------------------------------------------------------
DR Пики RMS Продолжительность трека--------------------------------------------------------------------------------DR8 -0.07 дБ -11.17 дБ 2:06 01-Cantate dominoDR9 -0.08 дБ -13.25 дБ 2:46 02-Ave MariaDR13 -0.07 дБ -18.20 дБ 4:45 03-O memorialeDR9 -0.07 дБ -12.32 дБ 2:53 04-Laudate dominiumDR11 -0.07 дБ -14.31 дБ 2:56 05-Il est ne le divin enfantDR10 -0.08 дБ -14.87 дБ 4:01 06-White christmasDR11 -0.09 дБ -14.60 дБ 3:10 07-Les anges dans nos campagnesDR9 -0.08 дБ -12.41 дБ 1:29 08-Joy to the worldDR10 -0.08 дБ -14.03 дБ 2:36 09-WaldechoDR11 -0.08 дБ -14.76 дБ 3:23 10-CiucarellaDR11 -0.09 дБ -16.38 дБ 3:26 11-Riviere TanierDR10 -0.08 дБ -13.76 дБ 3:31 12-Sora o a ruiteDR11 -1.57 дБ -16.36 дБ 1:53 13-Tece voda teceDR12 -0.21 дБ -17.47 дБ 3:43 14-La nuitDR8 -0.07 дБ -11.80 дБ 2:57 15-Mes jeunes annees--------------------------------------------------------------------------------
Количество треков: 15Реальные значения DR: DR10
Частота: 44100 ГцКаналов: 2Разрядность: 16Битрейт: 725 кбит/сКодек: FLAC================================================================================
[teatrix.ru].t10727.torrent 
Торрент: Зарегистрирован [ 2015-11-14 22:51 ] · 2515CDC056ECB37C010501A0443C52B5832DE4DD

Скачать .torrent

Скачать

12 KB

Статус: проверено
Скачан: 0 раз
Размер: 273 MB
terms.php



Быстрый ответ

Имя:

      
Для отправки сообщений необходимо включить JavaScript
Показать сообщения:    

Текущее время: 03-Дек 22:40

Часовой пояс: UTC + 3


Вы можете начинать темы
Вы можете отвечать на сообщения
Вы не можете редактировать свои сообщения
Вы не можете удалять свои сообщения
Вы не можете голосовать в опросах
Вы не можете прикреплять файлы к сообщениям
Вы можете скачивать файлы