(Classical, Vocal) Edita Gruberova, Radio-Sinfonieorchester Stuttgart, Kurt Eichhorn - The Art of Coloratura (1983), FLAC (tracks+.cue) lossless


 

[Цитировать]

Edita Gruberova, Radio-Sinfonieorchester Stuttgart, Kurt Eichhorn - The Art of Coloratura (1983)
Жанр: Classical, Vocal
Страна-производитель диска: Japan
Год издания диска: 1984
Издатель (лейбл): Orfeo Digital
Номер по каталогу: C 072-831 A
Дата записи: 1983
Аудиокодек: FLAC
Тип рипа: tracks+.cue
Битрейт аудио: lossless
Продолжительность: 00:58:13
Источник: собственный рип
Наличие сканов в содержимом раздачи: фото
Треклист:
01. Luigi Arditi - Il Bacio (3:57)
02. Reinhold Glière - Konzert für Koloratursopran und Orchester op. 82, Andante (8:13)
03. Reinhold Glière - Konzert für Koloratursopran und Orchester op. 82, Allegro (5:34)
04. Sergei Rachmaninoff - Chanson georgienne op. 4/4 (4:25)
05. Heinrich Proch - Deh! torna mio bene (6:18)
06. Johann Strauss - Fruehlingsstimmen-Walzer op. 410 (8:45)
07. Alexander Alabieff - Die Nachtigall (6:22)
08. Adolphe Adam - Ah, vous dirai-je, Maman (6:45)
09. Eva dell'Acqua - Villanelle (4:21)
10. Léo Delibes - Les filles de Cadix (3:33)
Исполнители:
Edita Gruberova - vocal, soprano
Radio-Sinfonieorchester Stuttgart
Kurt Eichhorn - conductor

Лог создания рипа

Exact Audio Copy V1.0 beta 1 from 15. November 2010
EAC extraction logfile from 10. November 2015, 1:01
Edita Gruberova / The Art of Coloratura
Used drive : Optiarc DVD RW AD-7200A Adapter: 0 ID: 0
Read mode : SecureUtilize accurate stream : YesDefeat audio cache : YesMake use of C2 pointers : No
Read offset correction : 48Overread into Lead-In and Lead-Out : NoFill up missing offset samples with silence : YesDelete leading and trailing silent blocks : NoNull samples used in CRC calculations : YesUsed interface : Native Win32 interface for Win NT & 2000Gap handling : Appended to previous track
Used output format : User Defined EncoderSelected bitrate : 768 kBit/sQuality : HighAdd ID3 tag : NoCommand line compressor : C:\Program Files\Exact Audio Copy\Flac\flac.exeAdditional command line options : -8 -V -T "ARTIST=%a" -T "TITLE=%t" -T "ALBUM=%g" -T "DATE=%y" -T "TRACKNUMBER=%n" -T "TOTALTRACKS=%x" -T "GENRE=%m" -T "ALBUMARTIST=%v" -T "ALBUM ARTIST=%v" -T "COMMENT=EAC Secure Mode, Test & Copy, AccurateRip, FLAC -8" %s
TOC of the extracted CD
Track | Start | Length | Start sector | End sector --------------------------------------------------------- 1 | 0:00.00 | 3:57.00 | 0 | 17774 2 | 3:57.00 | 8:13.00 | 17775 | 54749 3 | 12:10.00 | 5:34.00 | 54750 | 79799 4 | 17:44.00 | 4:25.00 | 79800 | 99674 5 | 22:09.00 | 6:18.00 | 99675 | 128024 6 | 28:27.00 | 8:45.00 | 128025 | 167399 7 | 37:12.00 | 6:22.00 | 167400 | 196049 8 | 43:34.00 | 6:45.00 | 196050 | 226424 9 | 50:19.00 | 4:21.00 | 226425 | 245999 10 | 54:40.00 | 3:33.00 | 246000 | 261974
Track 1
Filename D:\Edita Gruberova - The Art of Coloratura (1983) [FLAC\01 - Luigi Arditi - Il Bacio.wav
Pre-gap length 0:00:02.00
Peak level 80.2 % Extraction speed 2.3 X Track quality 100.0 % Test CRC FDB3B724 Copy CRC FDB3B724 Accurately ripped (confidence 2) [A5AE352A] Copy OK
Track 2
Filename D:\Edita Gruberova - The Art of Coloratura (1983) [FLAC\02 - Reinhold Gliere - Konzert fuer Koloratursopran und Orchester op. 82, Andante.wav
Pre-gap length 0:00:07.00
Peak level 55.0 % Extraction speed 2.9 X Track quality 100.0 % Test CRC 31BD57B8 Copy CRC 31BD57B8 Accurately ripped (confidence 2) [E5467A8C] Copy OK
Track 3
Filename D:\Edita Gruberova - The Art of Coloratura (1983) [FLAC\03 - Reinhold Gliere - Konzert fuer Koloratursopran und Orchester op. 82, Allegro.wav
Pre-gap length 0:00:05.00
Peak level 90.7 % Extraction speed 3.2 X Track quality 100.0 % Test CRC C847FB76 Copy CRC C847FB76 Accurately ripped (confidence 2) [C3EECBF1] Copy OK
Track 4
Filename D:\Edita Gruberova - The Art of Coloratura (1983) [FLAC\04 - Sergej Rachmaninoff - Chanson georgienne op. 4,4.wav
Pre-gap length 0:00:08.00
Peak level 50.8 % Extraction speed 3.0 X Track quality 99.9 % Test CRC 86237770 Copy CRC 86237770 Accurately ripped (confidence 2) [DFD834BA] Copy OK
Track 5
Filename D:\Edita Gruberova - The Art of Coloratura (1983) [FLAC\05 - Heinrich Proch - Deh! torna mio bene.wav
Pre-gap length 0:00:07.00
Peak level 78.4 % Extraction speed 3.7 X Track quality 100.0 % Test CRC 01FDF4B2 Copy CRC 01FDF4B2 Accurately ripped (confidence 2) [3F2942F8] Copy OK
Track 6
Filename D:\Edita Gruberova - The Art of Coloratura (1983) [FLAC\06 - Johann Strauss - Fruhlingsstimmen, Waltzer op. 410.wav
Pre-gap length 0:00:07.00
Peak level 77.0 % Extraction speed 3.9 X Track quality 99.9 % Test CRC 674EC457 Copy CRC 674EC457 Accurately ripped (confidence 2) [1900450F] Copy OK
Track 7
Filename D:\Edita Gruberova - The Art of Coloratura (1983) [FLAC\07 - Alexander Alabieff - Die Nachtigall.wav
Pre-gap length 0:00:07.00
Peak level 40.6 % Extraction speed 4.4 X Track quality 100.0 % Test CRC EE772B29 Copy CRC EE772B29 Accurately ripped (confidence 2) [DB830FDC] Copy OK
Track 8
Filename D:\Edita Gruberova - The Art of Coloratura (1983) [FLAC\08 - Adolphe Adam - Ah, vous dirai-je, maman.wav
Pre-gap length 0:00:07.00
Peak level 61.8 % Extraction speed 4.6 X Track quality 100.0 % Test CRC 50A91B77 Copy CRC 50A91B77 Accurately ripped (confidence 2) [ABD4D7F8] Copy OK
Track 9
Filename D:\Edita Gruberova - The Art of Coloratura (1983) [FLAC\09 - Eva dell'Acqua - Villanelle.wav
Pre-gap length 0:00:07.00
Peak level 42.8 % Extraction speed 4.0 X Track quality 99.9 % Test CRC B3259C32 Copy CRC B3259C32 Accurately ripped (confidence 2) [729A1280] Copy OK
Track 10
Filename D:\Edita Gruberova - The Art of Coloratura (1983) [FLAC\10 - Leo Delibes - Les filles de Cadix.wav
Pre-gap length 0:00:07.00
Peak level 82.4 % Extraction speed 4.6 X Track quality 100.0 % Test CRC 11BF904A Copy CRC 11BF904A Accurately ripped (confidence 2) [BF69F1D8] Copy OK
All tracks accurately ripped
No errors occurred
End of status report
==== Log checksum 9CC6484CD1A7EB69C1874752189DA0E4003A954750C16EFBE1EE261B90496D9E ====

Содержание индексной карты (.CUE)

REM GENRE ClassicalREM DATE 1983REM DISCID 710DA50AREM COMMENT "ExactAudioCopy v1.0b1"PERFORMER "Edita Gruberova"TITLE "The Art of Coloratura"FILE "01 - Luigi Arditi - Il Bacio.wav" WAVE TRACK 01 AUDIO TITLE "Luigi Arditi - Il Bacio" PERFORMER "Edita Gruberova" INDEX 01 00:00:00 TRACK 02 AUDIO TITLE "Reinhold Gliere - Konzert fuer Koloratursopran und Orchester op. 82, Andante" PERFORMER "Edita Gruberova" INDEX 00 03:50:00FILE "02 - Reinhold Gliere - Konzert fuer Koloratursopran und Orchester op. 82, Andante.wav" WAVE INDEX 01 00:00:00 TRACK 03 AUDIO TITLE "Reinhold Gliere - Konzert fuer Koloratursopran und Orchester op. 82, Allegro" PERFORMER "Edita Gruberova" INDEX 00 08:08:00FILE "03 - Reinhold Gliere - Konzert fuer Koloratursopran und Orchester op. 82, Allegro.wav" WAVE INDEX 01 00:00:00 TRACK 04 AUDIO TITLE "Sergej Rachmaninoff - Chanson georgienne op. 4/4" PERFORMER "Edita Gruberova" INDEX 00 05:26:00FILE "04 - Sergej Rachmaninoff - Chanson georgienne op. 4,4.wav" WAVE INDEX 01 00:00:00 TRACK 05 AUDIO TITLE "Heinrich Proch - Deh! torna mio bene" PERFORMER "Edita Gruberova" INDEX 00 04:18:00FILE "05 - Heinrich Proch - Deh! torna mio bene.wav" WAVE INDEX 01 00:00:00 TRACK 06 AUDIO TITLE "Johann Strauss - Fruhlingsstimmen, Waltzer op. 410" PERFORMER "Edita Gruberova" INDEX 00 06:11:00FILE "06 - Johann Strauss - Fruhlingsstimmen, Waltzer op. 410.wav" WAVE INDEX 01 00:00:00 TRACK 07 AUDIO TITLE "Alexander Alabieff - Die Nachtigall" PERFORMER "Edita Gruberova" INDEX 00 08:38:00FILE "07 - Alexander Alabieff - Die Nachtigall.wav" WAVE INDEX 01 00:00:00 TRACK 08 AUDIO TITLE "Adolphe Adam - Ah, vous dirai-je, maman" PERFORMER "Edita Gruberova" INDEX 00 06:15:00FILE "08 - Adolphe Adam - Ah, vous dirai-je, maman.wav" WAVE INDEX 01 00:00:00 TRACK 09 AUDIO TITLE "Eva dell'Acqua - Villanelle" PERFORMER "Edita Gruberova" INDEX 00 06:38:00FILE "09 - Eva dell'Acqua - Villanelle.wav" WAVE INDEX 01 00:00:00 TRACK 10 AUDIO TITLE "Leo Delibes - Les filles de Cadix" PERFORMER "Edita Gruberova" INDEX 00 04:14:00FILE "10 - Leo Delibes - Les filles de Cadix.wav" WAVE INDEX 01 00:00:00

CD

Доп. информация, отзывы: http://www.amazon.com/Art-Coloratura-Edita-Gruberova/dp/B00000597Z



Показать сообщения:    

Текущее время: 04-Дек 04:58

Часовой пояс: UTC + 3


Вы не можете начинать темы
Вы не можете отвечать на сообщения
Вы не можете редактировать свои сообщения
Вы не можете удалять свои сообщения
Вы не можете голосовать в опросах
Вы не можете прикреплять файлы к сообщениям
Вы не можете скачивать файлы