(Classical) O dulcis amor - Women composers of the Seicento: Assandra, Aleotti, Caccini, Strozzi, Leonarda - La Villanella Basel - 2004, FLAC (image+.cue) lossless


 

[Цитировать]

O dulcis amor - Women composers of the Seicento: Assandra, Aleotti, Caccini, Strozzi, Leonarda - La Villanella Basel
Жанр: Classical
Год издания диска: 2004
Издатель (лейбл): Ramée
Номер по каталогу: RAM 0401
Дата записи: 2002
Аудиокодек: FLAC
Тип рипа: image+.cue
Битрейт аудио: lossless
Продолжительность: 66:55
Источник: собственный рип
Наличие сканов в содержимом раздачи: да
Треклист:
Caterina Assandra (circa 1590 - after 1618)
[1] Impleos nostrum
[2] Ave verum corpus
[3] Haec dies
[4] Ego flos campi
[5] O dulcis amor Iesu
Vittoria Aleotti (circa 1575 - after 1620)
[6] Hor che la vaga Aurora
[7] Cor mio perche pur piangi
[8] Mentre l'ardite labbia
Francesca Caccini (1587 - after 1641)
[9] Per la più vaga e bella
[10] Lasciatemi qui solo
Barbara Strozzi (1619 - after 1664)
[11] L'amante bugiardo
[12] Amor dormiglione
[13] Sete pur fastidioso
[14] L'eraclito amoroso
Isabella Leonarda (1620 - 1704)
[15] Sonata duodecima
[16] Iam diu dilecte mi Iesu
Исполнители:
La Villanella Basel

Лог создания рипа

Exact Audio Copy V1.1 from 23. June 2015
EAC extraction logfile from 5. November 2015, 1:02
La Villanella Basel / O dulcis amor
Used drive : HL-DT-STDVDRAM GU70N Adapter: 1 ID: 0
Read mode : SecureUtilize accurate stream : YesDefeat audio cache : YesMake use of C2 pointers : No
Read offset correction : 48Overread into Lead-In and Lead-Out : NoFill up missing offset samples with silence : YesDelete leading and trailing silent blocks : NoNull samples used in CRC calculations : YesUsed interface : Native Win32 interface for Win NT & 2000
Used output format : User Defined EncoderSelected bitrate : 128 kBit/sQuality : HighAdd ID3 tag : NoCommand line compressor : C:\Program Files (x86)\Exact Audio Copy\Flac\flac.exeAdditional command line options : -V -8 -T "Date=%year%" -T "Genre=%genre%" %source%
TOC of the extracted CD
Track | Start | Length | Start sector | End sector --------------------------------------------------------- 1 | 0:00.00 | 2:44.53 | 0 | 12352 2 | 2:44.53 | 3:13.65 | 12353 | 26892 3 | 5:58.43 | 4:02.62 | 26893 | 45104 4 | 10:01.30 | 2:40.30 | 45105 | 57134 5 | 12:41.60 | 2:44.33 | 57135 | 69467 6 | 15:26.18 | 2:01.18 | 69468 | 78560 7 | 17:27.36 | 2:58.05 | 78561 | 91915 8 | 20:25.41 | 2:57.67 | 91916 | 105257 9 | 23:23.33 | 2:08.49 | 105258 | 114906 10 | 25:32.07 | 6:16.15 | 114907 | 143121 11 | 31:48.22 | 2:59.05 | 143122 | 156551 12 | 34:47.27 | 2:42.66 | 156552 | 168767 13 | 37:30.18 | 2:57.25 | 168768 | 182067 14 | 40:27.43 | 6:23.52 | 182068 | 210844 15 | 46:51.20 | 9:49.39 | 210845 | 255058 16 | 56:40.59 | 10:08.09 | 255059 | 300667
Range status and errors
Selected range
Filename C:\temp\RAM 0401 O dulcis amor - La Villanella Basel\O dulcis amor.wav
Peak level 100.0 % Extraction speed 2.1 X Range quality 99.9 % Test CRC C9A0A8DD Copy CRC C9A0A8DD Copy OK
No errors occurred
AccurateRip summary
Track 1 accurately ripped (confidence 1) [DEA6784C] (AR v2)Track 2 accurately ripped (confidence 1) [D030BB08] (AR v2)Track 3 accurately ripped (confidence 1) [AE24C9D0] (AR v2)Track 4 accurately ripped (confidence 1) [3647F914] (AR v2)Track 5 accurately ripped (confidence 1) [B76394C8] (AR v2)Track 6 accurately ripped (confidence 1) [D1731537] (AR v2)Track 7 accurately ripped (confidence 1) [83DB0F24] (AR v2)Track 8 accurately ripped (confidence 1) [E0E5BAB9] (AR v2)Track 9 accurately ripped (confidence 1) [B7AD09C6] (AR v2)Track 10 accurately ripped (confidence 1) [53C81480] (AR v2)Track 11 accurately ripped (confidence 1) [33E54777] (AR v2)Track 12 accurately ripped (confidence 1) [CE3D4DB6] (AR v2)Track 13 accurately ripped (confidence 1) [4B95794B] (AR v2)Track 14 accurately ripped (confidence 1) [7C56B473] (AR v2)Track 15 accurately ripped (confidence 1) [C2FAFEA2] (AR v2)Track 16 accurately ripped (confidence 1) [123D7B0B] (AR v2)
All tracks accurately ripped
End of status report
==== Log checksum 7AD254B1F710F51463BE62BE0E619F3722AE2E880641AAD6FDFC4A3FF0769C89 ====



Показать сообщения:    

Текущее время: 07-Дек 13:39

Часовой пояс: UTC + 3


Вы не можете начинать темы
Вы не можете отвечать на сообщения
Вы не можете редактировать свои сообщения
Вы не можете удалять свои сообщения
Вы не можете голосовать в опросах
Вы не можете прикреплять файлы к сообщениям
Вы не можете скачивать файлы