(Opera, Vocal) Alain Vanzo - Arias: Operatic Scenes by Massenet, Lalo, Bizet, Gounod, Meyerbeer, Offenbach, Rossini, Verdi, Puccini, Mascagni, Ponchielli [Sung in French] (Compilation of Studio recordings), various dates /FLAC (tracks+.cue), lossless


 

[Цитировать]

Alain Vanzo - Arias
Жанр: Opera, Vocal
Год издания диска: 2001
Издатель (лейбл): Malibran
Дата записи: Various
Аудиокодек: FLAC
Тип рипа: tracks+.cue
Битрейт аудио: lossless
Продолжительность: 84:17
Источник: релизер (EL HUMILDE CAMPESINO) (afina tus oidos)
Исполнители:
Alain Vanzo, tenor.

Лог создания рипаЛог создания рипа CD 1

Exact Audio Copy V1.0 beta 3 from 29. August 2011
EAC extraction logfile from 8. November 2015, 19:56
Artista desconocido / Título desconocido
Used drive : HL-DT-STDVDRAM GH24NSC0 Adapter: 3 ID: 0
Read mode : SecureUtilize accurate stream : YesDefeat audio cache : YesMake use of C2 pointers : No
Read offset correction : 6Overread into Lead-In and Lead-Out : NoFill up missing offset samples with silence : YesDelete leading and trailing silent blocks : NoNull samples used in CRC calculations : YesUsed interface : Native Win32 interface for Win NT & 2000Gap handling : Appended to previous track
Used output format : User Defined EncoderSelected bitrate : 768 kBit/sQuality : HighAdd ID3 tag : NoCommand line compressor : C:\Program Files (x86)\Exact Audio Copy\FLAC\FLAC.EXEAdditional command line options : -8 -V -T "ARTIST=%artist%" -T "TITLE=%title%" -T "ALBUM=%albumtitle%" -T "DATE=%year%" -T "TRACKNUMBER=%tracknr%" -T "GENRE=%genre%" -T "PERFORMER=%albuminterpret%" -T "COMPOSER=%composer%" %haslyrics%--tag-from-file=LYRICS="%lyricsfile%"%haslyrics% -T "ALBUMARTIST=%albumartist%" -T "DISCNUMBER=%cdnumber%" -T "TOTALDISCS=%totalcds%" -T "TOTALTRACKS=%numtracks%" -T "COMMENT=%comment%" %source% -o %dest%
TOC of the extracted CD
Track | Start | Length | Start sector | End sector --------------------------------------------------------- 1 | 0:00.00 | 2:44.63 | 0 | 12362 2 | 2:44.63 | 5:09.52 | 12363 | 35589 3 | 7:54.40 | 5:21.41 | 35590 | 59705 4 | 13:16.06 | 3:39.46 | 59706 | 76176 5 | 16:55.52 | 5:51.22 | 76177 | 102523 6 | 22:46.74 | 3:36.13 | 102524 | 118736 7 | 26:23.12 | 4:11.32 | 118737 | 137593 8 | 30:34.44 | 5:50.70 | 137594 | 163913 9 | 36:25.39 | 2:22.40 | 163914 | 174603 10 | 38:48.04 | 4:52.71 | 174604 | 196574 11 | 43:41.00 | 4:33.22 | 196575 | 217071 12 | 48:14.22 | 5:01.52 | 217072 | 239698 13 | 53:15.74 | 3:48.61 | 239699 | 256859 14 | 57:04.60 | 5:00.05 | 256860 | 279364 15 | 62:04.65 | 3:00.00 | 279365 | 292864 16 | 65:04.65 | 3:18.72 | 292865 | 307786 17 | 68:23.62 | 5:23.68 | 307787 | 332079 18 | 73:47.55 | 4:15.06 | 332080 | 351210
Track 1
Filename f:\Users\Guillermo\Desktop\EAC convertidos\01 Pista01.wav
Pre-gap length 0:00:02.00
Peak level 97.7 % Extraction speed 1.5 X Track quality 100.0 % Test CRC 3317AFE6 Copy CRC 3317AFE6 Copy OK
Track 2
Filename f:\Users\Guillermo\Desktop\EAC convertidos\02 Pista02.wav
Pre-gap length 0:00:02.00
Peak level 97.7 % Extraction speed 1.9 X Track quality 100.0 % Test CRC 28E86E32 Copy CRC 28E86E32 Copy OK
Track 3
Filename f:\Users\Guillermo\Desktop\EAC convertidos\03 Pista03.wav
Pre-gap length 0:00:02.00
Peak level 97.7 % Extraction speed 1.8 X Track quality 99.9 % Test CRC 01D237B2 Copy CRC 01D237B2 Copy OK
Track 4
Filename f:\Users\Guillermo\Desktop\EAC convertidos\04 Pista04.wav
Pre-gap length 0:00:02.00
Peak level 97.7 % Extraction speed 2.1 X Track quality 100.0 % Test CRC D312E929 Copy CRC D312E929 Copy OK
Track 5
Filename f:\Users\Guillermo\Desktop\EAC convertidos\05 Pista05.wav
Pre-gap length 0:00:02.00
Peak level 97.7 % Extraction speed 2.4 X Track quality 100.0 % Test CRC 1DA28AE5 Copy CRC 1DA28AE5 Copy OK
Track 6
Filename f:\Users\Guillermo\Desktop\EAC convertidos\06 Pista06.wav
Pre-gap length 0:00:02.00
Peak level 97.7 % Extraction speed 2.3 X Track quality 100.0 % Test CRC EE6FB2D8 Copy CRC EE6FB2D8 Copy OK
Track 7
Filename f:\Users\Guillermo\Desktop\EAC convertidos\07 Pista07.wav
Pre-gap length 0:00:02.00
Peak level 97.7 % Extraction speed 2.1 X Track quality 99.9 % Test CRC 81A2A005 Copy CRC 81A2A005 Copy OK
Track 8
Filename f:\Users\Guillermo\Desktop\EAC convertidos\08 Pista08.wav
Pre-gap length 0:00:02.00
Peak level 97.7 % Extraction speed 2.8 X Track quality 100.0 % Test CRC 490ED4FA Copy CRC 490ED4FA Copy OK
Track 9
Filename f:\Users\Guillermo\Desktop\EAC convertidos\09 Pista09.wav
Pre-gap length 0:00:02.00
Peak level 97.7 % Extraction speed 2.4 X Track quality 100.0 % Test CRC BB551CD8 Copy CRC BB551CD8 Copy OK
Track 10
Filename f:\Users\Guillermo\Desktop\EAC convertidos\10 Pista10.wav
Pre-gap length 0:00:02.00
Peak level 97.7 % Extraction speed 2.9 X Track quality 100.0 % Test CRC 79C1D98C Copy CRC 79C1D98C Copy OK
Track 11
Filename f:\Users\Guillermo\Desktop\EAC convertidos\11 Pista11.wav
Pre-gap length 0:00:02.00
Peak level 97.7 % Extraction speed 3.0 X Track quality 100.0 % Test CRC 871F37FC Copy CRC 871F37FC Copy OK
Track 12
Filename f:\Users\Guillermo\Desktop\EAC convertidos\12 Pista12.wav
Pre-gap length 0:00:02.00
Peak level 97.7 % Extraction speed 3.2 X Track quality 100.0 % Test CRC C7E9DAD1 Copy CRC C7E9DAD1 Copy OK
Track 13
Filename f:\Users\Guillermo\Desktop\EAC convertidos\13 Pista13.wav
Pre-gap length 0:00:02.00
Peak level 97.7 % Extraction speed 2.6 X Track quality 99.9 % Test CRC 0FB01756 Copy CRC 0FB01756 Copy OK
Track 14
Filename f:\Users\Guillermo\Desktop\EAC convertidos\14 Pista14.wav
Pre-gap length 0:00:02.00
Peak level 97.7 % Extraction speed 3.3 X Track quality 100.0 % Test CRC 343D686D Copy CRC 343D686D Copy OK
Track 15
Filename f:\Users\Guillermo\Desktop\EAC convertidos\15 Pista15.wav
Pre-gap length 0:00:02.00
Peak level 97.7 % Extraction speed 3.1 X Track quality 100.0 % Test CRC 2480BA8C Copy CRC 2480BA8C Copy OK
Track 16
Filename f:\Users\Guillermo\Desktop\EAC convertidos\16 Pista16.wav
Pre-gap length 0:00:02.00
Peak level 97.7 % Extraction speed 3.2 X Track quality 100.0 % Test CRC 9EBA3C90 Copy CRC 9EBA3C90 Copy OK
Track 17
Filename f:\Users\Guillermo\Desktop\EAC convertidos\17 Pista17.wav
Pre-gap length 0:00:02.00
Peak level 97.7 % Extraction speed 3.6 X Track quality 100.0 % Test CRC B5D0BCFA Copy CRC B5D0BCFA Copy OK
Track 18
Filename f:\Users\Guillermo\Desktop\EAC convertidos\18 Pista18.wav
Pre-gap length 0:00:02.00
Peak level 97.7 % Extraction speed 3.6 X Track quality 100.0 % Test CRC 749BE3F5 Copy CRC 749BE3F5 Copy OK
No errors occurred
End of status report
==== Log checksum 588170370E63294F9774F96B4D8FBDABA42D3C777982A63FDCCA359F53C1C943 ====

Лог создания рипа CD 2

Exact Audio Copy V1.0 beta 3 from 29. August 2011
EAC extraction logfile from 8. November 2015, 21:17
Artista desconocido / Título desconocido
Used drive : HL-DT-STDVDRAM GH24NSC0 Adapter: 3 ID: 0
Read mode : SecureUtilize accurate stream : YesDefeat audio cache : YesMake use of C2 pointers : No
Read offset correction : 6Overread into Lead-In and Lead-Out : NoFill up missing offset samples with silence : YesDelete leading and trailing silent blocks : NoNull samples used in CRC calculations : YesUsed interface : Native Win32 interface for Win NT & 2000Gap handling : Appended to previous track
Used output format : User Defined EncoderSelected bitrate : 768 kBit/sQuality : HighAdd ID3 tag : NoCommand line compressor : C:\Program Files (x86)\Exact Audio Copy\FLAC\FLAC.EXEAdditional command line options : -8 -V -T "ARTIST=%artist%" -T "TITLE=%title%" -T "ALBUM=%albumtitle%" -T "DATE=%year%" -T "TRACKNUMBER=%tracknr%" -T "GENRE=%genre%" -T "PERFORMER=%albuminterpret%" -T "COMPOSER=%composer%" %haslyrics%--tag-from-file=LYRICS="%lyricsfile%"%haslyrics% -T "ALBUMARTIST=%albumartist%" -T "DISCNUMBER=%cdnumber%" -T "TOTALDISCS=%totalcds%" -T "TOTALTRACKS=%numtracks%" -T "COMMENT=%comment%" %source% -o %dest%
TOC of the extracted CD
Track | Start | Length | Start sector | End sector --------------------------------------------------------- 1 | 0:00.00 | 1:48.31 | 0 | 8130 2 | 1:48.31 | 2:33.16 | 8131 | 19621 3 | 4:21.47 | 3:03.69 | 19622 | 33415 4 | 7:25.41 | 2:21.17 | 33416 | 44007 5 | 9:46.58 | 4:13.44 | 44008 | 63026 6 | 14:00.27 | 3:13.49 | 63027 | 77550 7 | 17:14.01 | 5:15.25 | 77551 | 101200 8 | 22:29.26 | 4:48.52 | 101201 | 122852 9 | 27:18.03 | 1:42.55 | 122853 | 130557 10 | 29:00.58 | 5:14.15 | 130558 | 154122 11 | 34:14.73 | 4:36.45 | 154123 | 174867 12 | 38:51.43 | 3:49.42 | 174868 | 192084 13 | 42:41.10 | 3:19.02 | 192085 | 207011 14 | 46:00.12 | 4:57.74 | 207012 | 229360 15 | 50:58.11 | 4:21.17 | 229361 | 248952 16 | 55:19.28 | 3:36.70 | 248953 | 265222 17 | 58:56.23 | 2:14.36 | 265223 | 275308 18 | 61:10.59 | 2:45.60 | 275309 | 287743 19 | 63:56.44 | 4:28.10 | 287744 | 307853 20 | 68:24.54 | 3:59.14 | 307854 | 325792 21 | 72:23.68 | 3:45.15 | 325793 | 342682 22 | 76:09.08 | 3:18.08 | 342683 | 357540
Track 1
Filename f:\Users\Guillermo\Desktop\EAC convertidos\01 Pista01.wav
Pre-gap length 0:00:02.00
Peak level 97.7 % Extraction speed 1.3 X Track quality 100.0 % Test CRC 63314C19 Copy CRC 63314C19 Copy OK
Track 2
Filename f:\Users\Guillermo\Desktop\EAC convertidos\02 Pista02.wav
Pre-gap length 0:00:02.01
Peak level 97.7 % Extraction speed 1.5 X Track quality 100.0 % Test CRC 9C042DF6 Copy CRC 9C042DF6 Copy OK
Track 3
Filename f:\Users\Guillermo\Desktop\EAC convertidos\03 Pista03.wav
Pre-gap length 0:00:02.00
Peak level 97.7 % Extraction speed 1.7 X Track quality 100.0 % Test CRC D6ECFFF4 Copy CRC D6ECFFF4 Copy OK
Track 4
Filename f:\Users\Guillermo\Desktop\EAC convertidos\04 Pista04.wav
Pre-gap length 0:00:02.00
Peak level 97.7 % Extraction speed 1.7 X Track quality 100.0 % Test CRC 79130ED2 Copy CRC 79130ED2 Copy OK
Track 5
Filename f:\Users\Guillermo\Desktop\EAC convertidos\05 Pista05.wav
Pre-gap length 0:00:02.00
Peak level 97.7 % Extraction speed 2.0 X Track quality 100.0 % Test CRC 35A50890 Copy CRC 35A50890 Copy OK
Track 6
Filename f:\Users\Guillermo\Desktop\EAC convertidos\06 Pista06.wav
Pre-gap length 0:00:01.98
Peak level 97.7 % Extraction speed 2.0 X Track quality 100.0 % Test CRC AD39667A Copy CRC AD39667A Copy OK
Track 7
Filename f:\Users\Guillermo\Desktop\EAC convertidos\07 Pista07.wav
Pre-gap length 0:00:02.01
Peak level 97.7 % Extraction speed 2.4 X Track quality 100.0 % Test CRC 6449E51B Copy CRC 6449E51B Copy OK
Track 8
Filename f:\Users\Guillermo\Desktop\EAC convertidos\08 Pista08.wav
Pre-gap length 0:00:02.00
Peak level 97.7 % Extraction speed 2.1 X Track quality 99.9 % Test CRC 44BA6DF3 Copy CRC 44BA6DF3 Copy OK
Track 9
Filename f:\Users\Guillermo\Desktop\EAC convertidos\09 Pista09.wav
Pre-gap length 0:00:02.00
Peak level 97.7 % Extraction speed 2.0 X Track quality 100.0 % Test CRC 83B30B16 Copy CRC 83B30B16 Copy OK
Track 10
Filename f:\Users\Guillermo\Desktop\EAC convertidos\10 Pista10.wav
Pre-gap length 0:00:02.00
Peak level 97.7 % Extraction speed 2.4 X Track quality 99.9 % Test CRC 85272C78 Copy CRC 85272C78 Copy OK
Track 11
Filename f:\Users\Guillermo\Desktop\EAC convertidos\11 Pista11.wav
Pre-gap length 0:00:02.00
Peak level 97.7 % Extraction speed 2.4 X Track quality 99.9 % Test CRC 68312662 Copy CRC 68312662 Copy OK
Track 12
Filename f:\Users\Guillermo\Desktop\EAC convertidos\12 Pista12.wav
Pre-gap length 0:00:02.00
Peak level 97.7 % Extraction speed 2.8 X Track quality 100.0 % Test CRC 8B5DCCAB Copy CRC 8B5DCCAB Copy OK
Track 13
Filename f:\Users\Guillermo\Desktop\EAC convertidos\13 Pista13.wav
Pre-gap length 0:00:02.00
Peak level 97.7 % Extraction speed 2.8 X Track quality 100.0 % Test CRC CD03A3AB Copy CRC CD03A3AB Copy OK
Track 14
Filename f:\Users\Guillermo\Desktop\EAC convertidos\14 Pista14.wav
Pre-gap length 0:00:02.00
Peak level 97.7 % Extraction speed 3.1 X Track quality 100.0 % Test CRC B10E5DB3 Copy CRC B10E5DB3 Copy OK
Track 15
Filename f:\Users\Guillermo\Desktop\EAC convertidos\15 Pista15.wav
Pre-gap length 0:00:02.01
Peak level 97.7 % Extraction speed 3.1 X Track quality 100.0 % Test CRC CC711BD1 Copy CRC CC711BD1 Copy OK
Track 16
Filename f:\Users\Guillermo\Desktop\EAC convertidos\16 Pista16.wav
Pre-gap length 0:00:01.98
Peak level 97.7 % Extraction speed 3.1 X Track quality 100.0 % Test CRC 803DF761 Copy CRC 803DF761 Copy OK
Track 17
Filename f:\Users\Guillermo\Desktop\EAC convertidos\17 Pista17.wav
Pre-gap length 0:00:02.00
Peak level 97.7 % Extraction speed 2.2 X Track quality 99.8 % Test CRC 1601EB4A Copy CRC 1601EB4A Copy OK
Track 18
Filename f:\Users\Guillermo\Desktop\EAC convertidos\18 Pista18.wav
Pre-gap length 0:00:02.00
Peak level 97.7 % Extraction speed 3.0 X Track quality 100.0 % Test CRC D98EB08F Copy CRC D98EB08F Copy OK
Track 19
Filename f:\Users\Guillermo\Desktop\EAC convertidos\19 Pista19.wav
Pre-gap length 0:00:02.01
Peak level 100.0 % Extraction speed 3.4 X Track quality 100.0 % Test CRC A1503624 Copy CRC A1503624 Copy OK
Track 20
Filename f:\Users\Guillermo\Desktop\EAC convertidos\20 Pista20.wav
Pre-gap length 0:00:01.98
Peak level 97.7 % Extraction speed 3.4 X Track quality 100.0 % Test CRC 85C4E520 Copy CRC 85C4E520 Copy OK
Track 21
Filename f:\Users\Guillermo\Desktop\EAC convertidos\21 Pista21.wav
Pre-gap length 0:00:01.98
Peak level 97.7 % Extraction speed 3.5 X Track quality 100.0 % Test CRC 3A1AFD22 Copy CRC 3A1AFD22 Copy OK
Track 22
Filename f:\Users\Guillermo\Desktop\EAC convertidos\22 Pista22.wav
Pre-gap length 0:00:02.01
Peak level 94.6 % Extraction speed 3.4 X Track quality 100.0 % Test CRC 549E6430 Copy CRC 549E6430 Copy OK
No errors occurred
End of status report
==== Log checksum 95F4D0BA89A740FF820E385877D22C4C6A25744B8D4DD2BDE6ED6F25C5D8126B ====

Содержание индексной карты (.CUE)Содержание индексной карты (.CUE) CD 1

REM DISCID 1D124A12REM COMMENT "ExactAudioCopy v1.0b3"FILE "01 Pista01.wav" WAVE TRACK 01 AUDIO INDEX 01 00:00:00 TRACK 02 AUDIO INDEX 00 02:42:63FILE "02 Pista02.wav" WAVE INDEX 01 00:00:00 TRACK 03 AUDIO INDEX 00 05:07:52FILE "03 Pista03.wav" WAVE INDEX 01 00:00:00 TRACK 04 AUDIO INDEX 00 05:19:41FILE "04 Pista04.wav" WAVE INDEX 01 00:00:00 TRACK 05 AUDIO INDEX 00 03:37:46FILE "05 Pista05.wav" WAVE INDEX 01 00:00:00 TRACK 06 AUDIO INDEX 00 05:49:22FILE "06 Pista06.wav" WAVE INDEX 01 00:00:00 TRACK 07 AUDIO INDEX 00 03:34:13FILE "07 Pista07.wav" WAVE INDEX 01 00:00:00 TRACK 08 AUDIO INDEX 00 04:09:32FILE "08 Pista08.wav" WAVE INDEX 01 00:00:00 TRACK 09 AUDIO INDEX 00 05:48:70FILE "09 Pista09.wav" WAVE INDEX 01 00:00:00 TRACK 10 AUDIO INDEX 00 02:20:40FILE "10 Pista10.wav" WAVE INDEX 01 00:00:00 TRACK 11 AUDIO INDEX 00 04:50:71FILE "11 Pista11.wav" WAVE INDEX 01 00:00:00 TRACK 12 AUDIO INDEX 00 04:31:22FILE "12 Pista12.wav" WAVE INDEX 01 00:00:00 TRACK 13 AUDIO INDEX 00 04:59:52FILE "13 Pista13.wav" WAVE INDEX 01 00:00:00 TRACK 14 AUDIO INDEX 00 03:46:61FILE "14 Pista14.wav" WAVE INDEX 01 00:00:00 TRACK 15 AUDIO INDEX 00 04:58:05FILE "15 Pista15.wav" WAVE INDEX 01 00:00:00 TRACK 16 AUDIO INDEX 00 02:58:00FILE "16 Pista16.wav" WAVE INDEX 01 00:00:00 TRACK 17 AUDIO INDEX 00 03:16:72FILE "17 Pista17.wav" WAVE INDEX 01 00:00:00 TRACK 18 AUDIO INDEX 00 05:21:68FILE "18 Pista18.wav" WAVE INDEX 01 00:00:00

Содержание индексной карты (.CUE) CD 2

REM DISCID 21129F16REM COMMENT "ExactAudioCopy v1.0b3"FILE "01 Pista01.wav" WAVE TRACK 01 AUDIO INDEX 01 00:00:00 TRACK 02 AUDIO INDEX 00 01:46:30FILE "02 Pista02.wav" WAVE INDEX 01 00:00:00 TRACK 03 AUDIO INDEX 00 02:31:16FILE "03 Pista03.wav" WAVE INDEX 01 00:00:00 TRACK 04 AUDIO INDEX 00 03:01:69FILE "04 Pista04.wav" WAVE INDEX 01 00:00:00 TRACK 05 AUDIO INDEX 00 02:19:17FILE "05 Pista05.wav" WAVE INDEX 01 00:00:00 TRACK 06 AUDIO INDEX 00 04:11:45FILE "06 Pista06.wav" WAVE INDEX 01 00:00:00 TRACK 07 AUDIO INDEX 00 03:11:48FILE "07 Pista07.wav" WAVE INDEX 01 00:00:00 TRACK 08 AUDIO INDEX 00 05:13:25FILE "08 Pista08.wav" WAVE INDEX 01 00:00:00 TRACK 09 AUDIO INDEX 00 04:46:52FILE "09 Pista09.wav" WAVE INDEX 01 00:00:00 TRACK 10 AUDIO INDEX 00 01:40:55FILE "10 Pista10.wav" WAVE INDEX 01 00:00:00 TRACK 11 AUDIO INDEX 00 05:12:15FILE "11 Pista11.wav" WAVE INDEX 01 00:00:00 TRACK 12 AUDIO INDEX 00 04:34:45FILE "12 Pista12.wav" WAVE INDEX 01 00:00:00 TRACK 13 AUDIO INDEX 00 03:47:42FILE "13 Pista13.wav" WAVE INDEX 01 00:00:00 TRACK 14 AUDIO INDEX 00 03:17:02FILE "14 Pista14.wav" WAVE INDEX 01 00:00:00 TRACK 15 AUDIO INDEX 00 04:55:73FILE "15 Pista15.wav" WAVE INDEX 01 00:00:00 TRACK 16 AUDIO INDEX 00 04:19:18FILE "16 Pista16.wav" WAVE INDEX 01 00:00:00 TRACK 17 AUDIO INDEX 00 03:34:70FILE "17 Pista17.wav" WAVE INDEX 01 00:00:00 TRACK 18 AUDIO INDEX 00 02:12:36FILE "18 Pista18.wav" WAVE INDEX 01 00:00:00 TRACK 19 AUDIO INDEX 00 02:43:59FILE "19 Pista19.wav" WAVE INDEX 01 00:00:00 TRACK 20 AUDIO INDEX 00 04:26:11FILE "20 Pista20.wav" WAVE INDEX 01 00:00:00 TRACK 21 AUDIO INDEX 00 03:57:15FILE "21 Pista21.wav" WAVE INDEX 01 00:00:00 TRACK 22 AUDIO INDEX 00 03:43:14FILE "22 Pista22.wav" WAVE INDEX 01 00:00:00

Треклист

Disc 1:
Gioachino Rossini:
01. Le Barbier de Séville: Sérénade
02. Le Barbier de Séville: Des rayons de l’aurore
Carl Maria von Weber:
03. Euryanthe : Brises qui me bercez
04. Euryanthe : Sur la rive si riante
Charles Gounod:
05. Faust : Cavatine
06. Mireille: Anges du paradis
07. Roméo et Juliette : Ah lève-toi, soleil !
08. Roméo et Juliette : Scène du tombeau
09. Jules Massenet - Werther : Pourquoi me réveiller ?
10. Jacques Offenbach - Les Contes d’Hoffmann : Légende de Kleinzach
11. Giacomo Puccini - La Bohème: Que cette main est froide
12. Georges Bizet - Les Pêcheurs de Perles : Je crois entendre encore
Giuseppe Verdi:
13. Rigoletto: Ballade du Duc
14. Rigoletto : Ah! ils me l’ont ravie !
15. Rigoletto : Comme la plume au vent
16. Edouard Lalo - Le Roi d’Ys : Vainement, ma bien-aimée
Andre Ernest Modeste Grétry:
17. Richard Cœur de Lion : Si l’univers entier m’oublie
18. Richard Cœur de Lion : Une fièvre brûlante (avec Camille Maurane)
Disc 2:
Giacomo Puccini:
01. Madame Butterfly : Adieu, séjour fleuri (avec René Bianco)
02. Tosca: O de beautés égales
03. Tosca: Le ciel luisait d étoiles
04. Manon Lescaut : Ange, sirène ou femme
Giuseppe Verdi:
05. La Traviata: Non loin d’elle
06. Don Carlos : Je l’ai perdue
07. Les Vêpres Siciliennes : Ô jours de peine
08. Georges Bizet - Les Pêcheurs de Perles : Je crois entendre encore
Giacomo Meyerbeer:
09. Les Huguenots : sous ce beau ciel de la tourraine.
10. Les Huguenots : Plus blanche que la blanche hermine
11. Amilcare Ponchielli - La Gioconda : Ciel et Mer
12. Georges Bizet - La Jolie Fille de Perth : A la voix d’un amant fidèle
Jules Massenet:
13. Manon : C’est lui !… En fermant les yeux
14. Manon : Ah fuyez, douce image
15. Pensée d’automne
16 Edouard Lalo - Le Roi d’Ys : Vainement, ma bien-aimée
Pietro Mascagni:
17. Cavalleria Rusticana: O lola Blanche fleur
18. Cavalleria Rusticana: Brindisi
19. Cavalleria Rusticana: Adieux à la mère
20. Franz Lehar : Le Pays du sourire: Je t’ai donné mon coeur
21. Granada
22. Le rêve passe (enregistrement privé de 1954, le premier enregistrement d’Alain Vanzo)



Показать сообщения:    

Текущее время: 11-Дек 09:12

Часовой пояс: UTC + 3


Вы не можете начинать темы
Вы не можете отвечать на сообщения
Вы не можете редактировать свои сообщения
Вы не можете удалять свои сообщения
Вы не можете голосовать в опросах
Вы не можете прикреплять файлы к сообщениям
Вы не можете скачивать файлы