Корабль Тесея / Ship of Theseus (Ананд Ганди / Anand Gandhi) [2011, Индия - Нидерланды, драма, SATRip-AVC] DVO (Культура)


Статистика раздачи [Обновить пиров]
Размер:  1.17 GB   |    Зарегистрирован:  1 год   |    Скачан:  0 раз

Полного источника не было: Никогда

Личеров:  7  [  0 KB/s  ]   Подробная статистика пиров
 
   
 
 
 

[Цитировать]

Корабль Тесея / Ship of Theseus
Страна: Индия - Нидерланды
Жанр: драма
Год выпуска: 2011
Продолжительность: 02:21:16
Перевод: Профессиональный (двухголосый закадровый) Культура
Cубтитры: нет
Режиссер: Ананд Ганди / Anand Gandhi
В ролях: Айда Эль-Кашеф, Нирадж Каби, Читра Шах, Самир Хурана, Випул Бинджола, Шукла Винай, Фараз Хан
Описание: Кораблю легендарного Тесея, нуждавшемуся в ремонте, меняли одну деталь за другой, пока ничего от прежнего в нем не осталось. Тот ли теперь это корабль? А что несет трансплантация органов современному человеку? Талантливая девушка-фотограф после операции теряет свой дар. Образованный монах стоит перед выбором между религиозными принципами и выживанием. Молодой предприниматель идет по следу украденной почки и понимает, насколько сложной может быть мораль…
Сэмпл: http://sendfile.su/1173969
Качество видео: SATRip-AVC
Формат видео: MKV
Видео: 712x320 (777:320) 25fps 970 Kbps
Аудио: mp2 48000Hz 2ch mono 192kbps

MediaInfo

Format : Matroska
Format version : Version 2
File size : 1.17 GiB
Duration : 2h 21mn
Overall bit rate : 1 185 Kbps
Encoded date : UTC 2015-11-15 14:33:01
Writing application : mkvmerge v5.8.0 ('No Sleep / Pillow') built on Sep 2 2012 15:37:04
Writing library : libebml v1.2.3 + libmatroska v1.3.0
Video
ID : 1
Format : AVC
Format/Info : Advanced Video Codec
Format profile : High@L4.1
Format settings, CABAC : Yes
Format settings, ReFrames : 8 frames
Codec ID : V_MPEG4/ISO/AVC
Duration : 2h 21mn
Bit rate : 970 Kbps
Width : 712 pixels
Height : 320 pixels
Display aspect ratio : 2.40:1
Original display aspect ratio : 2.40:1
Frame rate mode : Constant
Frame rate : 25.000 fps
Color space : YUV
Chroma subsampling : 4:2:0
Bit depth : 8 bits
Scan type : Progressive
Bits/(Pixel*Frame) : 0.170
Stream size : 980 MiB (82%)
Writing library : x264 core 125 r2208 d9d2288
Encoding settings : cabac=1 / ref=8 / deblock=1:-1:-1 / analyse=0x3:0x133 / me=umh / subme=9 / psy=1 / psy_rd=1.00:0.10 / mixed_ref=1 / me_range=24 / chroma_me=1 / trellis=2 / 8x8dct=1 / cqm=0 / deadzone=21,11 / fast_pskip=1 / chroma_qp_offset=-3 / threads=6 / lookahead_threads=1 / sliced_threads=0 / nr=0 / decimate=1 / interlaced=0 / bluray_compat=0 / constrained_intra=0 / bframes=3 / b_pyramid=2 / b_adapt=2 / b_bias=0 / direct=1 / weightb=1 / open_gop=0 / weightp=2 / keyint=250 / keyint_min=25 / scenecut=40 / intra_refresh=0 / rc_lookahead=60 / rc=crf / mbtree=1 / crf=18.0 / qcomp=0.60 / qpmin=0 / qpmax=69 / qpstep=4 / ip_ratio=1.40 / aq=1:1.00
Default : Yes
Forced : No
Audio
ID : 2
Format : MPEG Audio
Format version : Version 1
Format profile : Layer 2
Codec ID : A_MPEG/L2
Codec ID/Hint : MP2
Duration : 2h 21mn
Bit rate mode : Constant
Bit rate : 192 Kbps
Channel(s) : 2 channels
Sampling rate : 48.0 KHz
Compression mode : Lossy
Delay relative to video : 200ms
Stream size : 194 MiB (16%)
Language : English
Default : Yes
Forced : No

Скриншот c названием фильма

Скриншоты

[teatrix.ru].t10755.torrent 
Торрент: Зарегистрирован [ 2015-11-15 22:02 ] · 9C0932095A8C19D3D37D95400652CEDFBD099BA5

Скачать .torrent

Скачать

12 KB

Статус: проверено
Скачан: 0 раз
Размер: 1.17 GB
terms.php



Быстрый ответ

Имя:

      
Для отправки сообщений необходимо включить JavaScript
Показать сообщения:    

Текущее время: 11-Дек 03:22

Часовой пояс: UTC + 3


Вы можете начинать темы
Вы можете отвечать на сообщения
Вы не можете редактировать свои сообщения
Вы не можете удалять свои сообщения
Вы не можете голосовать в опросах
Вы не можете прикреплять файлы к сообщениям
Вы можете скачивать файлы