(Classical) Joseph Haydn - 12 London Symphonies - Austro-Hungarian Haydn Orchestra, Adam Fischer - 5CD - 2013, FLAC (image+.cue) lossless


 

[Цитировать]

Joseph Haydn - 12 London Symphonies - Austro-Hungarian Haydn Orchestra, Adam Fischer
Жанр: Classical
Год издания диска: 2013
Издатель (лейбл): Brilliant Classics
Номер по каталогу: 94601
Дата записи: 1987-1989
Аудиокодек: FLAC
Тип рипа: image+.cue
Битрейт аудио: lossless
Продолжительность: 5:16:47
Источник: собственный рип
Наличие сканов в содержимом раздачи: да
Треклист:
Joseph Haydn (1732-1809)
12 London Symphonies

CD1-CD2

CD1
[1]-[4] Symphony No.93 in D major
[5]-[8] Symphony No.94 in G major 'Surprise'
[9]-[12] Symphony No.95 in C minor
CD2
[1]-[4] Symphony No.96 in D major
[5]-[8] Symphony No.97 in C major
[9]-[12] Symphony No.98 in B flat major

CD3-CD5

CD3
[1]-[4] Symphony No.99 in E flat major
[5]-[8] Symphony No.100 in G major 'Military'
CD4
[1]-[4] Symphony No.101 in D major 'Clock'
[5]-[8] Symphony No.102 in B flat major 'Miracle'
CD5
[1]-[4] Symphony No.103 in E flat major 'Drum Roll'
[5]-[8] Symphony No.104 in D major 'London'
Исполнители:
Austro-Hungarian Haydn Orchestra
Adam Fischer

Лог создания рипа: CD1

Exact Audio Copy V1.1 from 23. June 2015
EAC extraction logfile from 31. October 2015, 22:33
Austro-Hungarian Haydn Orchestra, Adam Fischer / Haydn - 12 London Symphonies - CD1
Used drive : HL-DT-STDVDRAM GU70N Adapter: 1 ID: 0
Read mode : SecureUtilize accurate stream : YesDefeat audio cache : YesMake use of C2 pointers : No
Read offset correction : 48Overread into Lead-In and Lead-Out : NoFill up missing offset samples with silence : YesDelete leading and trailing silent blocks : NoNull samples used in CRC calculations : YesUsed interface : Native Win32 interface for Win NT & 2000
Used output format : User Defined EncoderSelected bitrate : 128 kBit/sQuality : HighAdd ID3 tag : NoCommand line compressor : C:\Program Files (x86)\Exact Audio Copy\Flac\flac.exeAdditional command line options : -V -8 -T "Date=%year%" -T "Genre=%genre%" %source%
TOC of the extracted CD
Track | Start | Length | Start sector | End sector --------------------------------------------------------- 1 | 0:00.00 | 8:13.00 | 0 | 36974 2 | 8:13.00 | 6:11.00 | 36975 | 64799 3 | 14:24.00 | 4:34.00 | 64800 | 85349 4 | 18:58.00 | 5:21.00 | 85350 | 109424 5 | 24:19.00 | 8:37.00 | 109425 | 148199 6 | 32:56.00 | 6:18.00 | 148200 | 176549 7 | 39:14.00 | 4:59.00 | 176550 | 198974 8 | 44:13.00 | 3:56.00 | 198975 | 216674 9 | 48:09.00 | 6:53.00 | 216675 | 247649 10 | 55:02.00 | 5:36.00 | 247650 | 272849 11 | 60:38.00 | 5:00.00 | 272850 | 295349 12 | 65:38.00 | 3:47.00 | 295350 | 312374
Range status and errors
Selected range
Filename C:\temp\Haydn - 12 London Symphonies - Adam Fischer\CD1\Haydn - 12 London Symphonies - CD1.wav
Peak level 100.0 % Extraction speed 5.3 X Range quality 100.0 % Test CRC ECD7C105 Copy CRC ECD7C105 Copy OK
No errors occurred
AccurateRip summary
Track 1 cannot be verified as accurate (confidence 44) [A3DCFE1B], AccurateRip returned [940B767A] (AR v2)Track 2 cannot be verified as accurate (confidence 44) [0892F96A], AccurateRip returned [7DB5E569] (AR v2)Track 3 cannot be verified as accurate (confidence 44) [7A903513], AccurateRip returned [DCCFF3F7] (AR v2)Track 4 cannot be verified as accurate (confidence 44) [3200B435], AccurateRip returned [9FFD4CB5] (AR v2)Track 5 cannot be verified as accurate (confidence 45) [AAD57488], AccurateRip returned [36E0B0F9] (AR v2)Track 6 cannot be verified as accurate (confidence 45) [CE8E2089], AccurateRip returned [A72F99BD] (AR v2)Track 7 cannot be verified as accurate (confidence 45) [76308171], AccurateRip returned [7E920478] (AR v2)Track 8 cannot be verified as accurate (confidence 45) [5462DE71], AccurateRip returned [A3FBFC80] (AR v2)Track 9 cannot be verified as accurate (confidence 44) [A6E65827], AccurateRip returned [3DBA881A] (AR v2)Track 10 cannot be verified as accurate (confidence 44) [749A283C], AccurateRip returned [D1AD4858] (AR v2)Track 11 cannot be verified as accurate (confidence 44) [366886FD], AccurateRip returned [4F05C19E] (AR v2)Track 12 cannot be verified as accurate (confidence 42) [2DC70D59], AccurateRip returned [20EB273F] (AR v2)
No tracks could be verified as accurateYou may have a different pressing from the one(s) in the database
End of status report
==== Log checksum 4CFEC3BC93702C584357D4E08921AE886464A092CA9A49C6E48B1498C325350B ====

Лог создания рипа: CD2

Exact Audio Copy V1.1 from 23. June 2015
EAC extraction logfile from 1. November 2015, 0:38
Austro-Hungarian Haydn Orchestra, Adam Fischer / Haydn - 12 London Symphonies - CD2
Used drive : HL-DT-STDVDRAM GU70N Adapter: 1 ID: 0
Read mode : SecureUtilize accurate stream : YesDefeat audio cache : YesMake use of C2 pointers : No
Read offset correction : 48Overread into Lead-In and Lead-Out : NoFill up missing offset samples with silence : YesDelete leading and trailing silent blocks : NoNull samples used in CRC calculations : YesUsed interface : Native Win32 interface for Win NT & 2000
Used output format : User Defined EncoderSelected bitrate : 128 kBit/sQuality : HighAdd ID3 tag : NoCommand line compressor : C:\Program Files (x86)\Exact Audio Copy\Flac\flac.exeAdditional command line options : -V -8 -T "Date=%year%" -T "Genre=%genre%" %source%
TOC of the extracted CD
Track | Start | Length | Start sector | End sector --------------------------------------------------------- 1 | 0:00.00 | 7:23.37 | 0 | 33261 2 | 7:23.37 | 6:42.00 | 33262 | 63411 3 | 14:05.37 | 5:41.38 | 63412 | 89024 4 | 19:47.00 | 3:42.00 | 89025 | 105674 5 | 23:29.00 | 8:23.37 | 105675 | 143436 6 | 31:52.37 | 7:51.38 | 143437 | 178799 7 | 39:44.00 | 4:13.00 | 178800 | 197774 8 | 43:57.00 | 5:37.00 | 197775 | 223049 9 | 49:34.00 | 8:04.00 | 223050 | 259349 10 | 57:38.00 | 7:18.25 | 259350 | 292224 11 | 64:56.25 | 5:54.12 | 292225 | 318786 12 | 70:50.37 | 8:23.38 | 318787 | 356549
Range status and errors
Selected range
Filename C:\temp\Haydn - 12 London Symphonies - Adam Fischer\CD2\Haydn - 12 London Symphonies - CD2.wav
Peak level 80.2 % Extraction speed 2.4 X Range quality 100.0 % Test CRC 4FDF2B39 Copy CRC 4FDF2B39 Copy OK
No errors occurred
AccurateRip summary
Track 1 cannot be verified as accurate (confidence 43) [ACAAC5AF], AccurateRip returned [6A48F767] (AR v2)Track 2 cannot be verified as accurate (confidence 43) [9670FB48], AccurateRip returned [842AC76A] (AR v2)Track 3 cannot be verified as accurate (confidence 43) [B82FE1CE], AccurateRip returned [F1978CB3] (AR v2)Track 4 cannot be verified as accurate (confidence 43) [ABDD9F2D], AccurateRip returned [536818C4] (AR v2)Track 5 cannot be verified as accurate (confidence 43) [68712CE7], AccurateRip returned [FEA3DF5A] (AR v2)Track 6 cannot be verified as accurate (confidence 42) [8D2DF89C], AccurateRip returned [1DA40BF4] (AR v2)Track 7 cannot be verified as accurate (confidence 43) [6C41A93F], AccurateRip returned [549455A8] (AR v2)Track 8 cannot be verified as accurate (confidence 43) [C753CEEE], AccurateRip returned [5B246C33] (AR v2)Track 9 cannot be verified as accurate (confidence 43) [E6AA653A], AccurateRip returned [20EE8A20] (AR v2)Track 10 cannot be verified as accurate (confidence 43) [F6536572], AccurateRip returned [5A460749] (AR v2)Track 11 cannot be verified as accurate (confidence 42) [A53B5EBE], AccurateRip returned [C233CA2E] (AR v2)Track 12 cannot be verified as accurate (confidence 42) [EB89A294], AccurateRip returned [47F0C0D1] (AR v2)
No tracks could be verified as accurateYou may have a different pressing from the one(s) in the database
End of status report
==== Log checksum 63265B06045E688CBAAA49853801D5C54CD770D8450318573CE4D158DFBEB6D9 ====

Лог создания рипа: CD3

Exact Audio Copy V1.1 from 23. June 2015
EAC extraction logfile from 1. November 2015, 2:22
Austro-Hungarian Haydn Orchestra, Adam Fischer / Haydn - 12 London Symphonies - CD3
Used drive : HL-DT-STDVDRAM GU70N Adapter: 1 ID: 0
Read mode : SecureUtilize accurate stream : YesDefeat audio cache : YesMake use of C2 pointers : No
Read offset correction : 48Overread into Lead-In and Lead-Out : NoFill up missing offset samples with silence : YesDelete leading and trailing silent blocks : NoNull samples used in CRC calculations : YesUsed interface : Native Win32 interface for Win NT & 2000
Used output format : User Defined EncoderSelected bitrate : 128 kBit/sQuality : HighAdd ID3 tag : NoCommand line compressor : C:\Program Files (x86)\Exact Audio Copy\Flac\flac.exeAdditional command line options : -V -8 -T "Date=%year%" -T "Genre=%genre%" %source%
TOC of the extracted CD
Track | Start | Length | Start sector | End sector --------------------------------------------------------- 1 | 0:00.00 | 8:44.00 | 0 | 39299 2 | 8:44.00 | 8:29.00 | 39300 | 77474 3 | 17:13.00 | 5:57.00 | 77475 | 104249 4 | 23:10.00 | 4:31.00 | 104250 | 124574 5 | 27:41.00 | 7:52.00 | 124575 | 159974 6 | 35:33.00 | 5:50.00 | 159975 | 186224 7 | 41:23.00 | 5:14.00 | 186225 | 209774 8 | 46:37.00 | 5:23.00 | 209775 | 233999
Range status and errors
Selected range
Filename C:\temp\Haydn - 12 London Symphonies - Adam Fischer\CD3\Haydn - 12 London Symphonies - CD3.wav
Peak level 100.0 % Extraction speed 2.0 X Range quality 100.0 % Test CRC 3C1F6AEA Copy CRC 3C1F6AEA Copy OK
No errors occurred
AccurateRip summary
Track 1 cannot be verified as accurate (confidence 42) [0CCEDBEB], AccurateRip returned [AAD22AF3] (AR v2)Track 2 cannot be verified as accurate (confidence 39) [9DCC62C9], AccurateRip returned [C2942417] (AR v2)Track 3 cannot be verified as accurate (confidence 41) [47A6C673], AccurateRip returned [1B73B6DA] (AR v2)Track 4 cannot be verified as accurate (confidence 42) [21AB1466], AccurateRip returned [9C61214E] (AR v2)Track 5 cannot be verified as accurate (confidence 42) [D80B0568], AccurateRip returned [E511AC82] (AR v2)Track 6 cannot be verified as accurate (confidence 42) [7C89AFBA], AccurateRip returned [E5642A46] (AR v2)Track 7 cannot be verified as accurate (confidence 42) [95471A58], AccurateRip returned [3AC5103B] (AR v2)Track 8 cannot be verified as accurate (confidence 42) [FDD77030], AccurateRip returned [DBFC8F7D] (AR v2)
No tracks could be verified as accurateYou may have a different pressing from the one(s) in the database
End of status report
==== Log checksum 30B8096D099D29ACD7C270A899C0D71EEBC98559203B4AA59EF7C9E46E66EE52 ====

Лог создания рипа: CD4

Exact Audio Copy V1.1 from 23. June 2015
EAC extraction logfile from 1. November 2015, 2:52
Austro-Hungarian Haydn Orchestra, Adam Fischer / Haydn - 12 London Symphonies - CD4
Used drive : HL-DT-STDVDRAM GU70N Adapter: 1 ID: 0
Read mode : SecureUtilize accurate stream : YesDefeat audio cache : YesMake use of C2 pointers : No
Read offset correction : 48Overread into Lead-In and Lead-Out : NoFill up missing offset samples with silence : YesDelete leading and trailing silent blocks : NoNull samples used in CRC calculations : YesUsed interface : Native Win32 interface for Win NT & 2000
Used output format : User Defined EncoderSelected bitrate : 128 kBit/sQuality : HighAdd ID3 tag : NoCommand line compressor : C:\Program Files (x86)\Exact Audio Copy\Flac\flac.exeAdditional command line options : -V -8 -T "Date=%year%" -T "Genre=%genre%" %source%
TOC of the extracted CD
Track | Start | Length | Start sector | End sector --------------------------------------------------------- 1 | 0:00.00 | 8:21.37 | 0 | 37611 2 | 8:21.37 | 8:17.30 | 37612 | 74916 3 | 16:38.67 | 8:25.33 | 74917 | 112824 4 | 25:04.25 | 4:45.12 | 112825 | 134211 5 | 29:49.37 | 8:59.38 | 134212 | 174674 6 | 38:49.00 | 6:10.00 | 174675 | 202424 7 | 44:59.00 | 6:49.00 | 202425 | 233099 8 | 51:48.00 | 4:42.00 | 233100 | 254249
Range status and errors
Selected range
Filename C:\temp\Haydn - 12 London Symphonies - Adam Fischer\CD4\Haydn - 12 London Symphonies - CD4.wav
Peak level 79.5 % Extraction speed 5.1 X Range quality 100.0 % Test CRC 13E3F46A Copy CRC 13E3F46A Copy OK
No errors occurred
AccurateRip summary
Track 1 cannot be verified as accurate (confidence 42) [08C7B248], AccurateRip returned [332DF849] (AR v2)Track 2 cannot be verified as accurate (confidence 42) [6C7F7D07], AccurateRip returned [FDB9DAFD] (AR v2)Track 3 cannot be verified as accurate (confidence 41) [4FC01E81], AccurateRip returned [05F15B25] (AR v2)Track 4 cannot be verified as accurate (confidence 42) [906D176D], AccurateRip returned [9A653AFB] (AR v2)Track 5 cannot be verified as accurate (confidence 41) [832598D5], AccurateRip returned [46127F1B] (AR v2)Track 6 cannot be verified as accurate (confidence 42) [DD8A24D7], AccurateRip returned [CF2F7353] (AR v2)Track 7 cannot be verified as accurate (confidence 41) [40B71E4C], AccurateRip returned [E548D5DE] (AR v2)Track 8 cannot be verified as accurate (confidence 42) [1E216949], AccurateRip returned [3C27193B] (AR v2)
No tracks could be verified as accurateYou may have a different pressing from the one(s) in the database
End of status report
==== Log checksum FB9624A5D262193E14BF027DF9514E99FB6785F50948DDEFEDC47B5A78F8D7D2 ====

Лог создания рипа: CD5

Exact Audio Copy V1.1 from 23. June 2015
EAC extraction logfile from 1. November 2015, 3:23
Austro-Hungarian Haydn Orchestra, Adam Fischer / Haydn - 12 London Symphonies - CD5
Used drive : HL-DT-STDVDRAM GU70N Adapter: 1 ID: 0
Read mode : SecureUtilize accurate stream : YesDefeat audio cache : YesMake use of C2 pointers : No
Read offset correction : 48Overread into Lead-In and Lead-Out : NoFill up missing offset samples with silence : YesDelete leading and trailing silent blocks : NoNull samples used in CRC calculations : YesUsed interface : Native Win32 interface for Win NT & 2000
Used output format : User Defined EncoderSelected bitrate : 128 kBit/sQuality : HighAdd ID3 tag : NoCommand line compressor : C:\Program Files (x86)\Exact Audio Copy\Flac\flac.exeAdditional command line options : -V -8 -T "Date=%year%" -T "Genre=%genre%" %source%
TOC of the extracted CD
Track | Start | Length | Start sector | End sector --------------------------------------------------------- 1 | 0:00.00 | 9:25.00 | 0 | 42374 2 | 9:25.00 | 10:30.00 | 42375 | 89624 3 | 19:55.00 | 5:11.00 | 89625 | 112949 4 | 25:06.00 | 5:20.00 | 112950 | 136949 5 | 30:26.00 | 8:49.00 | 136950 | 176624 6 | 39:15.00 | 8:24.00 | 176625 | 214424 7 | 47:39.00 | 5:18.00 | 214425 | 238274 8 | 52:57.00 | 6:41.00 | 238275 | 268349
Range status and errors
Selected range
Filename C:\temp\Haydn - 12 London Symphonies - Adam Fischer\CD5\Haydn - 12 London Symphonies - CD5.wav
Peak level 77.5 % Extraction speed 5.2 X Range quality 99.9 % Test CRC 10E24E12 Copy CRC 10E24E12 Copy OK
No errors occurred
AccurateRip summary
Track 1 cannot be verified as accurate (confidence 41) [B0095694], AccurateRip returned [72346FA2] (AR v2)Track 2 cannot be verified as accurate (confidence 41) [3E5C123E], AccurateRip returned [7285CD65] (AR v2)Track 3 cannot be verified as accurate (confidence 41) [5540F7F3], AccurateRip returned [FF03A034] (AR v2)Track 4 cannot be verified as accurate (confidence 41) [47DC80E2], AccurateRip returned [2A764050] (AR v2)Track 5 cannot be verified as accurate (confidence 41) [3FDF21E4], AccurateRip returned [4361CF6A] (AR v2)Track 6 cannot be verified as accurate (confidence 41) [C6C882A6], AccurateRip returned [B8C0A37C] (AR v2)Track 7 cannot be verified as accurate (confidence 40) [89757E97], AccurateRip returned [2532580C] (AR v2)Track 8 cannot be verified as accurate (confidence 40) [E1DE7C9C], AccurateRip returned [A9A29276] (AR v2)
No tracks could be verified as accurateYou may have a different pressing from the one(s) in the database
End of status report
==== Log checksum 7516FC61FB90EC5F447A8E993677C99173BCC219579BA4B3996DA7A7A11F6EDC ====



Показать сообщения:    

Текущее время: 03-Дек 16:41

Часовой пояс: UTC + 3


Вы не можете начинать темы
Вы не можете отвечать на сообщения
Вы не можете редактировать свои сообщения
Вы не можете удалять свои сообщения
Вы не можете голосовать в опросах
Вы не можете прикреплять файлы к сообщениям
Вы не можете скачивать файлы