Команда разрушителей / The Wrecking Crew (Денни Тедеско / Denny Tedesco) [2008, 2014, документальный, музыка, DVB] [2014 Editing] DVO (24 ДОК)


Статистика раздачи [Обновить пиров]
Размер:  1.52 GB   |    Зарегистрирован:  1 год   |    Скачан:  0 раз

Полного источника не было: Никогда

Личеров:  7  [  0 KB/s  ]   Подробная статистика пиров
 
   
 
 
 

[Цитировать]

Команда разрушителей
The Wrecking Crew- Дата/Год выпуска: 2008, 2014
Страна: США
Жанр: документальный, музыка
Продолжительность: 01:32:35
Перевод: Профессиональный (двухголосый закадровый)
Доп. инфо о переводе: 24 ДОК
Русские субтитры: нет
Режиссер: Денни Тедеско / Denny Tedesco
Телеканал: 24 ДОКОписание: В поп-культуре 60-х преобладали молодежные группы The Beach Boys, The Mamas & the Papas, Jan and Dean, The Monkees. Звукозаписывающие компании представляли их публике в глянцевом виде с помощью художественных фотографий и отработанных биографических профилей. Но на студийных записях этих исполнителей зачастую полностью отсутствовали их следы. Для создания идеального темпа, тональности, тембра популярных композиций для записи приглашались известные только специалистам сессионные музыканты. Таким образом были записаны такие хиты, как "California Dreamin", "These Boots Are Made for Walkin", "Be My Baby", "The Beat Goes On", "Good Vibrations".
Доп. информация: DVB-S
Награды: приз зрительских симпатий Seattle International Film Festival 2008; 2 награды The Rome International Film Festival 2008 (лучший американский документальный фильм, приз зрительских симпатий); приз за лучший документальный фильм Barbados International Film Festival 2008; 1-й приз за лучший документальный фильм Rhode Island International Film Festival 2008; номинация на лучший документальный фильм о музыке International Documentary Association 2008; др. награды.

качество: DVB
формат: MKV
Видео: MPEG Video 2, 720x576@768x576 (4:3), 25 fps, ~2113 kbps avg, 0.204 bit/pixel
Аудио: MPEG Audio 2, 2 ch, 48 kHz, 192.00 kbps

MediaInfo

ОбщееУникальный идентификатор : 221975783842900097467545733147106898612 (0xA6FEFB1C78A490EB910EEE38718272B4)Полное имя : F:\My Torrents 3\[apreder]The_Wrecking_Crew(2008)DVB.mkvФормат : MatroskaВерсия формата : Version 2Размер файла : 1,52 ГбайтПродолжительность : 1 ч. 32 м.Режим общего битрейта : ПеременныйОбщий поток : 2352 Кбит/секДата кодирования : UTC 2015-11-07 11:54:54Программа кодирования : mkvmerge v8.5.2 ('Crosses') 64bitБиблиотека кодирования : libebml v1.3.3 + libmatroska v1.4.4Attachements : cover.jpg / cover_small.jpgTITLE : The Wrecking CrewIMDB : tt1185418DATE_RELEASED : 2008-00-00LAW_RATING : 16+GENRE : Documentary, MusicDIRECTOR : Denny TedescoKEYWORDS :
ВидеоИдентификатор : 1Формат : MPEG VideoВерсия формата : Version 2Профиль формата : Main@MainПараметр BVOP формата : ДаПараметр матрицы формата : ВыборочнаяПараметр GOP формата : VariableFormat_Settings_PictureStructure : FrameИдентификатор кодека : V_MPEG2Идентификатор кодека/Информация : MPEG 1 or 2 VideoПродолжительность : 1 ч. 32 м.Вид битрейта : ПеременныйБитрейт : 2113 Кбит/секШирина : 720 пикселейВысота : 576 пикселейСоотношение сторон : 4:3Режим частоты кадров : ПостоянныйЧастота кадров : 25,000 кадров/секСтандарт вещания : PALЦветовое пространство : YUVСубдискретизация насыщенности : 4:2:0Битовая глубина : 8 битТип развёртки : ЧересстрочнаяПорядок развёртки : Верхнее поле первоеМетод сжатия : С потерямиБит/(Пиксели*Кадры) : 0.204Временной код первого кадра : 00:00:00:00Оригинал временного кода : Group of pictures headerРазмер потока : 1,37 Гбайт (90%)Default : ДаForced : Нет
АудиоИдентификатор : 2Формат : MPEG AudioВерсия формата : Version 1Профиль формата : Layer 2Идентификатор кодека : A_MPEG/L2Идентификатор кодека/Подсказка : MP2Продолжительность : 1 ч. 32 м.Вид битрейта : ПостоянныйБитрейт : 192 Кбит/секКаналы : 2 каналаЧастота : 48,0 КГцМетод сжатия : С потерямиРазмер потока : 127 Мбайт (8%)Язык : RussianDefault : ДаForced : Нет

Скриншоты


Резервные скриншоты


[teatrix.ru].t10758.torrent 
Торрент: Зарегистрирован [ 2015-11-15 22:02 ] · B6F1308C3904DBB17208DFD2795CAA49155E2379

Скачать .torrent

Скачать

16 KB

Статус: проверено
Скачан: 0 раз
Размер: 1.52 GB
terms.php



Быстрый ответ

Имя:

      
Для отправки сообщений необходимо включить JavaScript
Показать сообщения:    

Текущее время: 06-Дек 11:10

Часовой пояс: UTC + 3


Вы можете начинать темы
Вы можете отвечать на сообщения
Вы не можете редактировать свои сообщения
Вы не можете удалять свои сообщения
Вы не можете голосовать в опросах
Вы не можете прикреплять файлы к сообщениям
Вы можете скачивать файлы