Меня там нет / I'm Not There. (Тодд Хейнс / Todd Haynes) [2007, США, Германия, Канада, драма, биография, музыка, BDRip] MVO


 

[Цитировать]

Меня там нет / I'm Not There.- Год выпуска: 2007
Страна: США, Германия, Канада
Жанр: драма, биография, музыка
Продолжительность: 02:15:33
Перевод: Профессиональный (многоголосый, закадровый) R5
Субтитры: нет-Режиссер: Тодд Хейнс / Todd Haynes
В ролях: Кейт Бланшетт, Хит Леджер, Кристиан Бэйл, Ричард Гир, Джулианна Мур, Шарлотта Генсбур, Мишель Уильямс, Бен Уишоу, Маркус Карл Франклин, Брюс Гринвуд, Дэвид Кросс
О фильме: Своеобразная биография Боба Дилана — шесть историй, шесть персонажей, каждый из которых символизирует определенный период в жизни легендарного исполнителя или особенности его творчества.
Одиннадцатилетний мальчик, называющий себя Вуди Гуатри, символизирует детство Дилана; он сбегает из детского исправительного центра и отправляется в путешествие, вдвоем с гитарой, на чехле которой написано: «Эта штука убивает фашистов». Затем на сцене появляется Джек Роллинс — молодой исполнитель песен в стиле фолк — чуть позже этот социально активный юноша откроет для себя христианство и станет пастором Джоном в церкви маленького захолустного городка.
Джуд Куинн — это Дилан на вершине своей славы в 60-е годы, а затем Дилан предстает в образе бунтаря, идентифицирующего себя с поэтом Артюром Рембо. Робби Кларк — выдуманный голливудский актер, прославившийся главной ролью в фильме о Джеке Роллинсе, и в то же время Робби — это Дилан-романтик, тяжело переживающий разрыв со своей женой. И, наконец, есть Малыш Билли — постаревший Дилан в декорациях вымышленного городка на Диком Западе.-Релиз:
Автор: yaroslaigor
Качество: BDRip (источник: Kinozal-TV / BD-Remux / 1080p)
Формат: AVI
Видео: 720x304 (2.37:1), 23.976 fps, XviD build 65 ~1850 kbps avg, 0.35 bit/pixel
Аудио: 48 kHz, AC3 Dolby Digital, 3/2 (L,C,R,l,r) + LFE ch, ~448 kbps avg
Размер: 2234.84 Mb (1/2 DVD)
Скачать: Семпл-

Кадры из фильма


-

Mi

Формат : AVI
Формат/Информация : Audio Video Interleave
Профиль формата : OpenDML
Размер файла : 2,18 Гбайт
Продолжительность : 2 ч. 15 м.
Общий поток : 2305 Кбит/сек
Название фильма : Меня там нет / I'm Not There. (2007) BDRip
Режиссёр : yaroslaigor
Жанр : драма, биография, музыка
Программа кодирования : VirtualDubMod 1.5.10.2 (build 2542/release)
Правообладатель : HQCLUB
Примечание : 10.11.2015
Видео
Идентификатор : 0
Формат : MPEG-4 Visual
Профиль формата : Advanced Simple@L5
Параметр BVOP формата : 1
Параметр QPel формата : Нет
Параметр GMC формата : Без точки перехода
Параметр матрицы формата : Выборочная
Идентификатор кодека : XVID
Идентификатор кодека/Подсказка : XviD
Продолжительность : 2 ч. 15 м.
Битрейт : 1845 Кбит/сек
Ширина : 720 пикселей
Высота : 304 пикселя
Соотношение сторон : 2,35:1
Частота кадров : 23,976 кадра/сек
Цветовое пространство : YUV
Субдискретизация насыщенности : 4:2:0
Битовая глубина : 8 бит
Тип развёртки : Прогрессивная
Метод сжатия : С потерями
Бит/(Пиксели*Кадры) : 0.352
Размер потока : 1,75 Гбайт (80%)
Библиотека кодирования : XviD 65
Аудио
Идентификатор : 1
Формат : AC-3
Формат/Информация : Audio Coding 3
Расширение режима : CM (complete main)
Параметр Endianness формата : Big
Идентификатор кодека : 2000
Продолжительность : 2 ч. 15 м.
Вид битрейта : Постоянный
Битрейт : 448 Кбит/сек
Каналы : 6 каналов
Расположение каналов : Front: L C R, Side: L R, LFE
Частота : 48,0 КГц
Битовая глубина : 16 бит
Метод сжатия : С потерями
Размер потока : 434 Мбайт (19%)
Выравнивание : Разделение по промежуткам
Продолжительность промежутка : 42 мс. (1,00 видеокадр)
Время предзагрузки промежутка : 500 мс.
-



Показать сообщения:    

Текущее время: 09-Дек 16:33

Часовой пояс: UTC + 3


Вы не можете начинать темы
Вы не можете отвечать на сообщения
Вы не можете редактировать свои сообщения
Вы не можете удалять свои сообщения
Вы не можете голосовать в опросах
Вы не можете прикреплять файлы к сообщениям
Вы не можете скачивать файлы