Танцующая в темноте / Dancer in the Dark (Ларс фон Триер / Lars von Trier) [2000, Дания, Швеция, мюзикл, драма, криминал, BDRip] Dub + DVO (ТВ1000) + Sub Rus, Eng + Original Eng


 

[Цитировать]

Танцующая в темноте / Dancer in the Dark
Страна: Дания, Швеция, США, Аргентина, Великобритания, Германия, Исландия, Испания, Италия, Нидерланды, Норвегия, Финляндия, Франция
Жанр: мюзикл, драма, криминал
Год выпуска: 2000
Продолжительность: 02:20:17
Перевод: Профессиональный (дублированный)
Перевод: Профессиональный (двухголосый закадровый) - ТВ1000
Cубтитры: русские (на песни), русские полные, английские
Оригинальная аудиодорожка: английский

Режиссер: Ларс фон Триер / Lars von Trier
В ролях: Бьорк, Катрин Денёв, Дэвид Морс, Петер Стормаре, Джоэл Грей, Кэра Сеймур, Владика Костич, Жан-Марк Барр, Винсент Пэтерсон, Шаван Фэллон, Желько Иванек, Удо Кир, Йенс Альбинус, Ретел Бин, Метте Берггреен, Ларс Майкл Динесен, Катрин Фалькенберг, Майкл Флессас, Джон Рэндольф Джонс, Ной Лазарус, Шелдон Литт, Эндрю Лукре, Джон Мартинес, Люк Рейли, Т.Дж. Риззо, Стеллан Скарсгард, Шон-Майкл Смит, Паприка Стеэн, Эрик Воге, Ник Вульф, Тимм Зиммерманн, Эл Агами, Алекс Моро, Александр Арли, Аллан Гилденкарне
Описание: Америка 60-х. На маленьком заводе работает эмигрантка, мать-одиночка по имени Сельма. Единственное, что скрашивает ее будни – страстное увлечение мюзиклами. Сельма почти слепа, и с каждым днем ее зрение становится все хуже. Одна в чужой стране... за работу платят гроши, а сыну тоже грозит слепота. Из года в год, отказывая себе во всем, Сельма копит деньги ему на операцию. И когда встает выбор между спасением ее жизни и здоровьем ребенка, Сельма предпочитает спасти сына. Ведь жизнь, которую нельзя увидеть, – хуже, чем смерть.
Качество видео: BDRip [Dancer.in.the.Dark.2000.BDRemux.1080.mkv]
Формат видео: AVI
Видео: 704x304 (2.32:1), 23.976 fps, XviD build 73 ~1772 kbps avg, 0.34 bit/pixel
Аудио: 48 kHz, AC3 Dolby Digital, 3/2 (L,C,R,l,r) + LFE ch, ~448 kbps - дубляж
отдельными файлами:
Аудио: 48 kHz, AC3 Dolby Digital, 2/0 (L,R) ch, ~224 kbps - двухголосый
Аудио: 48 kHz, AC3 Dolby Digital, 3/2 (L,C,R,l,r) + LFE ch, ~448 kbps - оригинал

MediaInfo

Общее
Полное имя : H:\Dancer.in.the.Dark.2000.bdrip_[2.18].avi
Формат : AVI
Формат/Информация : Audio Video Interleave
Профиль формата : OpenDML
Размер файла : 2,18 Гбайт
Продолжительность : 2 ч. 20 м.
Общий поток : 2227 Кбит/сек
Программа кодирования : VirtualDubMod 1.5.10.3 | www.virtualdub-fr.org || (build 2550/release)
Библиотека кодирования : VirtualDubMod build 2550/release
Видео
Идентификатор : 0
Формат : MPEG-4 Visual
Профиль формата : Advanced Simple@L5
Параметр BVOP формата : 1
Параметр QPel формата : Нет
Параметр GMC формата : Без точки перехода
Параметр матрицы формата : Выборочная
Идентификатор кодека : XVID
Идентификатор кодека/Подсказка : XviD
Продолжительность : 2 ч. 20 м.
Битрейт : 1768 Кбит/сек
Ширина : 704 пикселя
Высота : 304 пикселя
Соотношение сторон : 2,35:1
Частота кадров : 23,976 кадра/сек
Цветовое пространство : YUV
Субдискретизация насыщенности : 4:2:0
Битовая глубина : 8 бит
Тип развёртки : Прогрессивная
Метод сжатия : С потерями
Бит/(Пиксели*Кадры) : 0.345
Размер потока : 1,73 Гбайт (79%)
Библиотека кодирования : XviD 73
Аудио
Идентификатор : 1
Формат : AC-3
Формат/Информация : Audio Coding 3
Расширение режима : CM (complete main)
Параметр Endianness формата : Big
Идентификатор кодека : 2000
Продолжительность : 2 ч. 20 м.
Вид битрейта : Постоянный
Битрейт : 448 Кбит/сек
Каналы : 6 каналов
Расположение каналов : Front: L C R, Side: L R, LFE
Частота : 48,0 КГц
Битовая глубина : 16 бит
Метод сжатия : С потерями
Размер потока : 449 Мбайт (20%)
Выравнивание : Разделение по промежуткам
Продолжительность промежутка : 42 мс. (1,00 видеокадр)
Время предзагрузки промежутка : 500 мс.

Скриншоты




Показать сообщения:    

Текущее время: 09-Дек 22:22

Часовой пояс: UTC + 3


Вы не можете начинать темы
Вы не можете отвечать на сообщения
Вы не можете редактировать свои сообщения
Вы не можете удалять свои сообщения
Вы не можете голосовать в опросах
Вы не можете прикреплять файлы к сообщениям
Вы не можете скачивать файлы