(Classical) Andre Campra - Tancrede - Arnould, Druet, Santon, Buet, Martin-Bonnet; Les Temps Présents, Les Chantres du Centre de musique baroque de Versailles, Olivier Schneebeli - 2015, FLAC (image+.cue) lossless


 

[Цитировать]

André Campra - Tancrède - Arnould, Druet, Santon, Buet, Martin-Bonnet; Les Temps Présents, Les Chantres du Centre de musique baroque de Versailles, Olivier Schneebeli
Жанр: Classical
Страна-производитель диска: France
Год издания диска: 2015
Издатель (лейбл): Alpha Classics
Номер по каталогу: Alpha 958
Дата записи: 2014
Аудиокодек: FLAC
Тип рипа: image+.cue
Битрейт аудио: lossless
Продолжительность: 166:46
Источник: собственный рип
Наличие сканов в содержимом раздачи: да
Треклист:
André Campra (1660-1744)
Tancrède
CD1
[1]-[13] Prologue
[14]-[22] Acte I
CD2
[1]-[11] Acte II
[12]-[24] Acte III
CD3
[1]-[11] Acte IV
[12]-[23] Acte V
Исполнители:
Benoît Arnould Tancrède
Isabelle Druet Clorinde
Chantal Santon Herminie
Éric Martin-Bonnet Isménor
Alain Buet Argant
Les Temps Présents
Les Chantres du Centre de musique baroque de Versailles
Olivier Schneebeli

Лог создания рипа: CD1

Exact Audio Copy V1.1 from 23. June 2015
EAC extraction logfile from 14. November 2015, 2:34
Les Temps Présents, Les Chantres du Centre de musique baroque de Versailles, Olivier Schneebeli / Campra - Tancrede - CD1
Used drive : HL-DT-STDVDRAM GU70N Adapter: 1 ID: 0
Read mode : SecureUtilize accurate stream : YesDefeat audio cache : YesMake use of C2 pointers : No
Read offset correction : 48Overread into Lead-In and Lead-Out : NoFill up missing offset samples with silence : YesDelete leading and trailing silent blocks : NoNull samples used in CRC calculations : YesUsed interface : Native Win32 interface for Win NT & 2000
Used output format : User Defined EncoderSelected bitrate : 128 kBit/sQuality : HighAdd ID3 tag : NoCommand line compressor : C:\Program Files (x86)\Exact Audio Copy\Flac\flac.exeAdditional command line options : -V -8 -T "Date=%year%" -T "Genre=%genre%" %source%
TOC of the extracted CD
Track | Start | Length | Start sector | End sector --------------------------------------------------------- 1 | 0:00.00 | 3:01.68 | 0 | 13642 2 | 3:01.68 | 2:11.42 | 13643 | 23509 3 | 5:13.35 | 3:19.43 | 23510 | 38477 4 | 8:33.03 | 0:44.15 | 38478 | 41792 5 | 9:17.18 | 3:32.59 | 41793 | 57751 6 | 12:50.02 | 1:53.36 | 57752 | 66262 7 | 14:43.38 | 2:23.29 | 66263 | 77016 8 | 17:06.67 | 1:17.08 | 77017 | 82799 9 | 18:24.00 | 2:11.36 | 82800 | 92660 10 | 20:35.36 | 3:26.50 | 92661 | 108160 11 | 24:02.11 | 1:17.24 | 108161 | 113959 12 | 25:19.35 | 1:40.41 | 113960 | 121500 13 | 27:00.01 | 1:50.04 | 121501 | 129754 14 | 28:50.05 | 7:25.13 | 129755 | 163142 15 | 36:15.18 | 4:32.35 | 163143 | 183577 16 | 40:47.53 | 1:23.03 | 183578 | 189805 17 | 42:10.56 | 2:04.52 | 189806 | 199157 18 | 44:15.33 | 0:17.10 | 199158 | 200442 19 | 44:32.43 | 4:19.43 | 200443 | 219910 20 | 48:52.11 | 2:26.31 | 219911 | 230891 21 | 51:18.42 | 1:32.68 | 230892 | 237859 22 | 52:51.35 | 0:40.73 | 237860 | 240932
Range status and errors
Selected range
Filename C:\temp\Alpha 958 - Campra - Tancrede\CD1\Campra - Tancrede - CD1.wav
Peak level 95.1 % Extraction speed 5.0 X Range quality 99.9 % Test CRC 5DD6CE5E Copy CRC 5DD6CE5E Copy OK
No errors occurred
AccurateRip summary
Track 1 accurately ripped (confidence 1) [85B0DDF1] (AR v2)Track 2 accurately ripped (confidence 1) [28D9161E] (AR v2)Track 3 accurately ripped (confidence 1) [F2E2FA53] (AR v2)Track 4 accurately ripped (confidence 1) [BB15F49A] (AR v2)Track 5 accurately ripped (confidence 1) [2C8BA1D0] (AR v2)Track 6 accurately ripped (confidence 1) [5C35C54F] (AR v2)Track 7 accurately ripped (confidence 1) [8EBC3829] (AR v2)Track 8 accurately ripped (confidence 1) [8D720290] (AR v2)Track 9 accurately ripped (confidence 1) [CC72C585] (AR v2)Track 10 accurately ripped (confidence 1) [7D52C980] (AR v2)Track 11 accurately ripped (confidence 1) [125AF06B] (AR v2)Track 12 accurately ripped (confidence 1) [3366FAE2] (AR v2)Track 13 accurately ripped (confidence 1) [40493506] (AR v2)Track 14 accurately ripped (confidence 1) [0383FAAF] (AR v2)Track 15 accurately ripped (confidence 1) [FBF5D0B6] (AR v2)Track 16 accurately ripped (confidence 1) [62BFD55C] (AR v2)Track 17 accurately ripped (confidence 1) [507668AD] (AR v2)Track 18 accurately ripped (confidence 1) [C485C7A0] (AR v2)Track 19 accurately ripped (confidence 1) [D0DB6EED] (AR v2)Track 20 accurately ripped (confidence 1) [88BE6EAB] (AR v2)Track 21 accurately ripped (confidence 1) [1F19ECC4] (AR v2)Track 22 accurately ripped (confidence 1) [D4039402] (AR v2)
All tracks accurately ripped
End of status report
==== Log checksum 7C068233066458987AD547C6F2464878FABB9C3E37783051969A210A95EF37AF ====

Лог создания рипа: CD2

Exact Audio Copy V1.1 from 23. June 2015
EAC extraction logfile from 14. November 2015, 10:30
Les Temps Présents, Les Chantres du Centre de musique baroque de Versailles, Olivier Schneebeli / Campra - Tancrede - CD2
Used drive : HL-DT-STDVDRAM GU70N Adapter: 1 ID: 0
Read mode : SecureUtilize accurate stream : YesDefeat audio cache : YesMake use of C2 pointers : No
Read offset correction : 48Overread into Lead-In and Lead-Out : NoFill up missing offset samples with silence : YesDelete leading and trailing silent blocks : NoNull samples used in CRC calculations : YesUsed interface : Native Win32 interface for Win NT & 2000
Used output format : User Defined EncoderSelected bitrate : 128 kBit/sQuality : HighAdd ID3 tag : NoCommand line compressor : C:\Program Files (x86)\Exact Audio Copy\Flac\flac.exeAdditional command line options : -V -8 -T "Date=%year%" -T "Genre=%genre%" %source%
TOC of the extracted CD
Track | Start | Length | Start sector | End sector --------------------------------------------------------- 1 | 0:00.00 | 3:34.57 | 0 | 16106 2 | 3:34.57 | 6:25.05 | 16107 | 44986 3 | 9:59.62 | 0:40.41 | 44987 | 48027 4 | 10:40.28 | 0:53.38 | 48028 | 52040 5 | 11:33.66 | 2:47.58 | 52041 | 64623 6 | 14:21.49 | 1:39.03 | 64624 | 72051 7 | 16:00.52 | 1:37.56 | 72052 | 79382 8 | 17:38.33 | 2:48.50 | 79383 | 92032 9 | 20:27.08 | 0:43.29 | 92033 | 95286 10 | 21:10.37 | 2:25.27 | 95287 | 106188 11 | 23:35.64 | 0:58.49 | 106189 | 110587 12 | 24:34.38 | 2:22.29 | 110588 | 121266 13 | 26:56.67 | 1:58.49 | 121267 | 130165 14 | 28:55.41 | 2:52.72 | 130166 | 143137 15 | 31:48.38 | 5:02.45 | 143138 | 165832 16 | 36:51.08 | 3:28.70 | 165833 | 181502 17 | 40:20.03 | 0:57.14 | 181503 | 185791 18 | 41:17.17 | 2:15.49 | 185792 | 195965 19 | 43:32.66 | 3:03.14 | 195966 | 209704 20 | 46:36.05 | 1:50.49 | 209705 | 218003 21 | 48:26.54 | 2:49.45 | 218004 | 230723 22 | 51:16.24 | 3:04.66 | 230724 | 244589 23 | 54:21.15 | 6:35.04 | 244590 | 274218 24 | 60:56.19 | 2:06.32 | 274219 | 283700
Range status and errors
Selected range
Filename C:\temp\Alpha 958 - Campra - Tancrede\CD2\Campra - Tancrede - CD2.wav
Peak level 95.1 % Extraction speed 2.1 X Range quality 100.0 % Test CRC FA5305C8 Copy CRC FA5305C8 Copy OK
No errors occurred
AccurateRip summary
Track 1 accurately ripped (confidence 1) [4C1D2ED9] (AR v2)Track 2 accurately ripped (confidence 1) [3399B345] (AR v2)Track 3 accurately ripped (confidence 1) [66571A82] (AR v2)Track 4 accurately ripped (confidence 1) [2E995874] (AR v2)Track 5 accurately ripped (confidence 1) [73AB26B4] (AR v2)Track 6 accurately ripped (confidence 1) [C7FC9C8E] (AR v2)Track 7 accurately ripped (confidence 1) [D9D77C5E] (AR v2)Track 8 accurately ripped (confidence 1) [9BFDAEB0] (AR v2)Track 9 accurately ripped (confidence 1) [FA1484EA] (AR v2)Track 10 accurately ripped (confidence 1) [8F7BA5D4] (AR v2)Track 11 accurately ripped (confidence 1) [FCA2F72D] (AR v2)Track 12 accurately ripped (confidence 1) [C1862D99] (AR v2)Track 13 accurately ripped (confidence 1) [9171243C] (AR v2)Track 14 accurately ripped (confidence 1) [E521A696] (AR v2)Track 15 accurately ripped (confidence 1) [D2FBA3F7] (AR v2)Track 16 accurately ripped (confidence 1) [2E17001C] (AR v2)Track 17 accurately ripped (confidence 1) [C1829232] (AR v2)Track 18 accurately ripped (confidence 1) [CEFC1360] (AR v2)Track 19 accurately ripped (confidence 1) [D39B73D4] (AR v2)Track 20 accurately ripped (confidence 1) [AC057228] (AR v2)Track 21 accurately ripped (confidence 1) [B03DD096] (AR v2)Track 22 accurately ripped (confidence 1) [91CBA5B2] (AR v2)Track 23 accurately ripped (confidence 1) [1CE01322] (AR v2)Track 24 accurately ripped (confidence 1) [4163AE1D] (AR v2)
All tracks accurately ripped
End of status report
==== Log checksum 5FDA7A9F7F7DC651530F44C685CAF0DE56F2DA6E594B3AC64749217BF9103363 ====

Лог создания рипа: CD3

Exact Audio Copy V1.1 from 23. June 2015
EAC extraction logfile from 14. November 2015, 11:16
Les Temps Présents, Les Chantres du Centre de musique baroque de Versailles, Olivier Schneebeli / Campra - Tancrede - CD3
Used drive : HL-DT-STDVDRAM GU70N Adapter: 1 ID: 0
Read mode : SecureUtilize accurate stream : YesDefeat audio cache : YesMake use of C2 pointers : No
Read offset correction : 48Overread into Lead-In and Lead-Out : NoFill up missing offset samples with silence : YesDelete leading and trailing silent blocks : NoNull samples used in CRC calculations : YesUsed interface : Native Win32 interface for Win NT & 2000
Used output format : User Defined EncoderSelected bitrate : 128 kBit/sQuality : HighAdd ID3 tag : NoCommand line compressor : C:\Program Files (x86)\Exact Audio Copy\Flac\flac.exeAdditional command line options : -V -8 -T "Date=%year%" -T "Genre=%genre%" %source%
TOC of the extracted CD
Track | Start | Length | Start sector | End sector --------------------------------------------------------- 1 | 0:00.00 | 3:02.03 | 0 | 13652 2 | 3:02.03 | 0:26.54 | 13653 | 15656 3 | 3:28.57 | 0:21.07 | 15657 | 17238 4 | 3:49.64 | 1:18.31 | 17239 | 23119 5 | 5:08.20 | 0:44.64 | 23120 | 26483 6 | 5:53.09 | 3:29.42 | 26484 | 42200 7 | 9:22.51 | 2:51.43 | 42201 | 55068 8 | 12:14.19 | 1:14.63 | 55069 | 60681 9 | 13:29.07 | 1:51.27 | 60682 | 69033 10 | 15:20.34 | 6:59.12 | 69034 | 100470 11 | 22:19.46 | 3:44.69 | 100471 | 117339 12 | 26:04.40 | 3:56.33 | 117340 | 135072 13 | 30:00.73 | 0:21.18 | 135073 | 136665 14 | 30:22.16 | 0:34.21 | 136666 | 139236 15 | 30:56.37 | 3:05.22 | 139237 | 153133 16 | 34:01.59 | 0:57.35 | 153134 | 157443 17 | 34:59.19 | 2:17.30 | 157444 | 167748 18 | 37:16.49 | 0:23.02 | 167749 | 169475 19 | 37:39.51 | 3:35.43 | 169476 | 185643 20 | 41:15.19 | 1:12.66 | 185644 | 191109 21 | 42:28.10 | 0:26.50 | 191110 | 193109 22 | 42:54.60 | 3:54.08 | 193110 | 210667 23 | 46:48.68 | 3:27.19 | 210668 | 226211
Range status and errors
Selected range
Filename C:\temp\Alpha 958 - Campra - Tancrede\CD3\Campra - Tancrede - CD3.wav
Peak level 95.1 % Extraction speed 4.9 X Range quality 100.0 % Test CRC 8E347285 Copy CRC 8E347285 Copy OK
No errors occurred
AccurateRip summary
Track 1 accurately ripped (confidence 1) [9589DF21] (AR v2)Track 2 accurately ripped (confidence 1) [784ACEA3] (AR v2)Track 3 accurately ripped (confidence 1) [EE833B4B] (AR v2)Track 4 accurately ripped (confidence 1) [A7F60CEE] (AR v2)Track 5 accurately ripped (confidence 1) [3BF5F29A] (AR v2)Track 6 accurately ripped (confidence 1) [17D35997] (AR v2)Track 7 accurately ripped (confidence 1) [07B521E1] (AR v2)Track 8 accurately ripped (confidence 1) [88EF86E4] (AR v2)Track 9 accurately ripped (confidence 1) [F151CD8C] (AR v2)Track 10 accurately ripped (confidence 1) [854E6A1A] (AR v2)Track 11 accurately ripped (confidence 1) [93A8BFE6] (AR v2)Track 12 accurately ripped (confidence 1) [FAAFB412] (AR v2)Track 13 accurately ripped (confidence 1) [7395D881] (AR v2)Track 14 accurately ripped (confidence 1) [E104BD03] (AR v2)Track 15 accurately ripped (confidence 1) [E2D3E300] (AR v2)Track 16 accurately ripped (confidence 1) [B2117DEA] (AR v2)Track 17 accurately ripped (confidence 1) [A61CD6F8] (AR v2)Track 18 accurately ripped (confidence 1) [F70C07B5] (AR v2)Track 19 accurately ripped (confidence 1) [F3FFAB62] (AR v2)Track 20 accurately ripped (confidence 1) [732805E3] (AR v2)Track 21 accurately ripped (confidence 1) [C6BA6BB2] (AR v2)Track 22 accurately ripped (confidence 1) [CEE695A8] (AR v2)Track 23 accurately ripped (confidence 1) [FB4C13BA] (AR v2)
All tracks accurately ripped
End of status report
==== Log checksum 21C324B02263BC4BC556ADE51DB79F315EA8B200D6E4524BBA042E37D8B61B7B ====



Показать сообщения:    

Текущее время: 07-Дек 17:25

Часовой пояс: UTC + 3


Вы не можете начинать темы
Вы не можете отвечать на сообщения
Вы не можете редактировать свои сообщения
Вы не можете удалять свои сообщения
Вы не можете голосовать в опросах
Вы не можете прикреплять файлы к сообщениям
Вы не можете скачивать файлы