(Opera) Jules Massenet - Thais / Жюль Массне - Таис (Jesus Etcheverry; Renee Doria, Robert Massard, Michel Senechal), 1961 - Studio recording / 1987, FLAC (tracks+.cue), lossless


 

[Цитировать]

Jules Massenet - Thais / Жюль Массне - Таис (Jésus Etcheverry; Renée Doria, Robert Massard, Michel Sénéchal)
Жанр: Opera
Страна-производитель диска: Франция
Год издания диска: 1987
Издатель (лейбл): Accord
Дата записи: 1961
Аудиокодек: FLAC
Тип рипа: tracks+.cue
Битрейт аудио: lossless
Продолжительность: 99:16
Источник: релизер (EL HUMILDE CAMPESINO) (afina tus oidos)
Исполнители:
Thaïs - Renée Doria,
Athanaël - Robert Massard,
Nicias - Michel Sénéchal,
Palémon - Gérard Serkoyan,
Crobyle - Françoise Louvay,
Myrtale/Albine - Jeannine Collard,
Servant - Jacques Scellier.
Conductor - Jésus Etcheverry,
Orchestra and Chorus of Paris Opera.
Recorded at Paris, April-May, 1961.

Лог создания рипаЛог создания рипа CD 1

Exact Audio Copy V1.0 beta 3 from 29. August 2011
EAC extraction logfile from 16. November 2015, 14:38
Renée Doria-Robert Massard-Michel Sénéchal-Janine Collard / Thaïs Disc 1
Used drive : HL-DT-STDVDRAM GH24NSC0 Adapter: 3 ID: 0
Read mode : SecureUtilize accurate stream : YesDefeat audio cache : YesMake use of C2 pointers : No
Read offset correction : 6Overread into Lead-In and Lead-Out : NoFill up missing offset samples with silence : YesDelete leading and trailing silent blocks : NoNull samples used in CRC calculations : YesUsed interface : Native Win32 interface for Win NT & 2000Gap handling : Appended to previous track
Used output format : User Defined EncoderSelected bitrate : 768 kBit/sQuality : HighAdd ID3 tag : NoCommand line compressor : C:\Program Files (x86)\Exact Audio Copy\FLAC\FLAC.EXEAdditional command line options : -8 -V -T "ARTIST=%artist%" -T "TITLE=%title%" -T "ALBUM=%albumtitle%" -T "DATE=%year%" -T "TRACKNUMBER=%tracknr%" -T "GENRE=%genre%" -T "PERFORMER=%albuminterpret%" -T "COMPOSER=%composer%" %haslyrics%--tag-from-file=LYRICS="%lyricsfile%"%haslyrics% -T "ALBUMARTIST=%albumartist%" -T "DISCNUMBER=%cdnumber%" -T "TOTALDISCS=%totalcds%" -T "TOTALTRACKS=%numtracks%" -T "COMMENT=%comment%" %source% -o %dest%
TOC of the extracted CD
Track | Start | Length | Start sector | End sector --------------------------------------------------------- 1 | 0:00.00 | 19:53.53 | 0 | 89527 2 | 19:53.53 | 24:32.42 | 89528 | 199969 3 | 44:26.20 | 18:26.48 | 199970 | 282967
Track 1
Filename f:\Users\Guillermo\Desktop\EAC convertidos\01 Acte I-1er tableau.wav
Pre-gap length 0:00:02.00
Peak level 76.8 % Extraction speed 2.1 X Track quality 99.9 % Test CRC 756FC717 Copy CRC 756FC717 Copy OK
Track 2
Filename f:\Users\Guillermo\Desktop\EAC convertidos\02 2e tableau.wav
Pre-gap length 0:00:04.66
Peak level 74.5 % Extraction speed 3.0 X Track quality 99.9 % Test CRC 163C297D Copy CRC 163C297D Copy OK
Track 3
Filename f:\Users\Guillermo\Desktop\EAC convertidos\03 Acte II-1er tableau.wav
Pre-gap length 0:00:07.93
Peak level 77.0 % Extraction speed 3.6 X Track quality 100.0 % Test CRC 321CB250 Copy CRC 321CB250 Copy OK
No errors occurred
End of status report
==== Log checksum 95403975E6667F0CF12067B811A668843899A4C9A8EC55DB96FFCFB09B2D28C3 ====

Лог создания рипа CD 2

Exact Audio Copy V1.0 beta 3 from 29. August 2011
EAC extraction logfile from 16. November 2015, 15:26
Renée Doria-Robert Massard-Michel Sénéchal-Janine Collard / Thaïs Disc 2
Used drive : HL-DT-STDVDRAM GH24NSC0 Adapter: 3 ID: 0
Read mode : SecureUtilize accurate stream : YesDefeat audio cache : YesMake use of C2 pointers : No
Read offset correction : 6Overread into Lead-In and Lead-Out : NoFill up missing offset samples with silence : YesDelete leading and trailing silent blocks : NoNull samples used in CRC calculations : YesUsed interface : Native Win32 interface for Win NT & 2000Gap handling : Appended to previous track
Used output format : User Defined EncoderSelected bitrate : 768 kBit/sQuality : HighAdd ID3 tag : NoCommand line compressor : C:\Program Files (x86)\Exact Audio Copy\FLAC\FLAC.EXEAdditional command line options : -8 -V -T "ARTIST=%artist%" -T "TITLE=%title%" -T "ALBUM=%albumtitle%" -T "DATE=%year%" -T "TRACKNUMBER=%tracknr%" -T "GENRE=%genre%" -T "PERFORMER=%albuminterpret%" -T "COMPOSER=%composer%" %haslyrics%--tag-from-file=LYRICS="%lyricsfile%"%haslyrics% -T "ALBUMARTIST=%albumartist%" -T "DISCNUMBER=%cdnumber%" -T "TOTALDISCS=%totalcds%" -T "TOTALTRACKS=%numtracks%" -T "COMMENT=%comment%" %source% -o %dest%
TOC of the extracted CD
Track | Start | Length | Start sector | End sector --------------------------------------------------------- 1 | 0:00.00 | 31:17.45 | 0 | 140819 2 | 31:17.45 | 18:29.15 | 140820 | 224009 3 | 49:46.60 | 8:49.72 | 224010 | 263756
Track 1
Filename f:\Users\Guillermo\Desktop\EAC convertidos\01 04-Acte II-2e tableau.wav
Pre-gap length 0:00:02.00
Peak level 82.2 % Extraction speed 2.3 X Track quality 99.9 % Test CRC 5D6C57E5 Copy CRC 5D6C57E5 Copy OK
Track 2
Filename f:\Users\Guillermo\Desktop\EAC convertidos\02 05-Acte III-1er tableau.wav
Pre-gap length 0:00:07.40
Peak level 64.3 % Extraction speed 3.1 X Track quality 100.0 % Test CRC 67465466 Copy CRC 67465466 Copy OK
Track 3
Filename f:\Users\Guillermo\Desktop\EAC convertidos\03 06-2e tableau.wav
Pre-gap length 0:00:03.97
Peak level 75.0 % Extraction speed 3.0 X Track quality 99.9 % Test CRC 3DD500C8 Copy CRC 3DD500C8 Copy OK
No errors occurred
End of status report
==== Log checksum 8D2878EAFBBF560846C86F51D5CAA4A37D7C8B7745D825254D6FFD4C6092245F ====

Содержание индексной карты (.CUE)Содержание индексной карты (.CUE) CD 1

REM GENRE OperaREM DATE 1961REM DISCID 280EBC03REM COMMENT "ExactAudioCopy v1.0b3"FILE "01 Acte I-1er tableau.wav" WAVE TRACK 01 AUDIO FLAGS PRE INDEX 01 00:00:00 TRACK 02 AUDIO FLAGS PRE INDEX 00 19:49:03FILE "02 2e tableau.wav" WAVE INDEX 01 00:00:00 TRACK 03 AUDIO FLAGS PRE INDEX 00 24:24:47FILE "03 Acte II-1er tableau.wav" WAVE INDEX 01 00:00:00

Содержание индексной карты (.CUE) CD 2

REM GENRE OperaREM DATE 1961REM DISCID 360DBC03REM COMMENT "ExactAudioCopy v1.0b3"FILE "01 04-Acte II-2e tableau.wav" WAVE TRACK 01 AUDIO FLAGS PRE INDEX 01 00:00:00 TRACK 02 AUDIO FLAGS PRE INDEX 00 31:10:15FILE "02 05-Acte III-1er tableau.wav" WAVE INDEX 01 00:00:00 TRACK 03 AUDIO FLAGS PRE INDEX 00 18:25:17FILE "03 06-2e tableau.wav" WAVE INDEX 01 00:00:00

Треклист

Disc 1:
Act I:
1. Scene 1
2. Scene 2
Act II:
3. Scene 1
Disc 2:
1. Scene 2
Act III:
2. Scene 1
3. Scene 2



Показать сообщения:    

Текущее время: 11-Дек 03:20

Часовой пояс: UTC + 3


Вы не можете начинать темы
Вы не можете отвечать на сообщения
Вы не можете редактировать свои сообщения
Вы не можете удалять свои сообщения
Вы не можете голосовать в опросах
Вы не можете прикреплять файлы к сообщениям
Вы не можете скачивать файлы