Люди-Птицы / Bird People (Паскаль Ферран / Pascale Ferran) [2014, Франция, фэнтези, драма, мелодрама, DVDRip] + Sub Rus + Original Eng


Статистика раздачи [Обновить пиров]
Размер:  1.46 GB   |    Зарегистрирован:  1 год   |    Скачан:  0 раз

Полного источника не было: Никогда

Личеров:  3  [  0 KB/s  ]   Подробная статистика пиров
 
   
 
 
 

[Цитировать]

Люди-Птицы / Bird People
Страна: Франция
Жанр: фэнтези, драма, мелодрама
Год выпуска: 2014
Продолжительность: 02:08:10
Перевод: Субтитры: creo140
Cубтитры: русские
Оригинальная аудиодорожка: английский, французский, японский
Режиссер: Паскаль Ферран / Pascale Ferran
В ролях: Джош Чарльз, Анаис Демустье,Рошди Зем, Джеффри Кантор, Камелия Джордана, Рада Митчелл
Описание: В транзитной зоне Парижского аэропорта два человека в корне трансформируют свою судьбу. Американский инженер, измотанный работой и эмоциональными перегрузками, решает радикально изменить жизнь, а молодая горничная из отеля сталкивается со сверхъестественным явлением, которое не проходит для неё бесследно.
Доп. информация: http://www.kinopoisk.ru/film/678161/
http://www.imdb.com/title/tt2368635/
Сэмпл: http://multi-up.com/1075780
Качество видео: DVDRip
Формат видео: AVI
Видео: Xvid 720x384 24fps 1240kbps
Аудио: Dolby AC3 48000Hz 6ch 384kbps
Формат субтитров: softsub (SRT)

Фрагмент субтитров

79
00:09:57,125 --> 00:09:58,083
Ну, хорошо.
80
00:10:05,250 --> 00:10:06,541
Отмазалась универом?
81
00:10:06,625 --> 00:10:08,583
Да, я им не раб!
82
00:11:37,041 --> 00:11:38,000
Добрый день.
83
00:11:54,250 --> 00:11:55,875
Номер 822 -
обслужи в первую очередь.
84
00:12:00,041 --> 00:12:02,000
Уборка номеров.
85
00:12:55,583 --> 00:12:57,083
Вы американец?
86
00:12:57,166 --> 00:12:58,875
Да.
87
00:12:58,958 --> 00:13:00,000
Откуда вы?
88
00:13:00,083 --> 00:13:01,625
Из Сан-Хосе.
89
00:13:03,208 --> 00:13:05,583
Сан-Франциско,
Силиконовая долине.
90
00:13:05,666 --> 00:13:07,958
О, Билл Гейтс!
91
00:13:08,041 --> 00:13:08,958
Нет...
92
00:13:09,833 --> 00:13:12,833
Да, Билл Гейтс.
93
00:13:22,958 --> 00:13:24,791
Париж. Красивый.
94
00:13:32,875 --> 00:13:34,333
Бен Ньюман: Без налогов!
95
00:13:34,375 --> 00:13:37,333
K. Геллер: Встреча с "Кожет"
16.05.12
96
00:13:37,875 --> 00:13:40,333
Папа, Путешествия=Без налогов=
Видео игры=Здорово!!
97
00:13:40,400 --> 00:13:42,533
Посмотри это, страшно смешно!
С любовью, Бен.
98
00:13:49,041 --> 00:13:51,083
И телефон агентства
по защите окружающей среды.
99
00:13:51,166 --> 00:13:52,583
Они будут в восторге.
100
00:13:52,666 --> 00:13:54,250
Я видел здесь
некоторых из них.
101
00:14:25,375 --> 00:14:26,833
Гэри Ньюман.
102
00:14:26,916 --> 00:14:28,041
Я Борис.
103
00:14:28,125 --> 00:14:29,041
Приятно познакомиться.

MediaInfo

Format : AVI
Format/Info : Audio Video Interleave
File size : 1.46 GiB
Duration : 2h 8mn
Overall bit rate : 1 634 Kbps
Writing application : VirtualDubMod 1.5.10.3 | www.virtualdub-fr.org || (build 2550/release)
Writing library : VirtualDubMod build 2550/release
Video
ID : 0
Format : MPEG-4 Visual
Format profile : Advanced Simple@L5
Format settings, BVOP : 1
Format settings, QPel : No
Format settings, GMC : No warppoints
Format settings, Matrix : Default (MPEG)
Codec ID : XVID
Codec ID/Hint : XviD
Duration : 2h 8mn
Bit rate : 1 241 Kbps
Width : 720 pixels
Height : 384 pixels
Display aspect ratio : 1.85:1
Frame rate : 24.000 fps
Color space : YUV
Chroma subsampling : 4:2:0
Bit depth : 8 bits
Scan type : Progressive
Compression mode : Lossy
Bits/(Pixel*Frame) : 0.187
Stream size : 1.11 GiB (76%)
Writing library : XviD 1.2.1 (UTC 2008-12-04)
Audio
ID : 1
Format : AC-3
Format/Info : Audio Coding 3
Mode extension : CM (complete main)
Format settings, Endianness : Big
Codec ID : 2000
Duration : 2h 8mn
Bit rate mode : Constant
Bit rate : 384 Kbps
Channel(s) : 6 channels
Channel positions : Front: L C R, Side: L R, LFE
Sampling rate : 48.0 KHz
Compression mode : Lossy
Stream size : 352 MiB (23%)
Alignment : Split accross interleaves
Interleave, duration : 42 ms (1.00 video frame)
Interleave, preload duration : 500 ms

Скриншот c названием фильма

[teatrix.ru].t10779.torrent 
Торрент: Зарегистрирован [ 2015-11-18 09:36 ] · EEF3C38ADFB14233FC072FFA95740757C50B0355

Скачать .torrent

Скачать

15 KB

Статус: проверено
Скачан: 0 раз
Размер: 1.46 GB
terms.php



Быстрый ответ

Имя:

      
Для отправки сообщений необходимо включить JavaScript
Показать сообщения:    

Текущее время: 07-Дек 23:20

Часовой пояс: UTC + 3


Вы можете начинать темы
Вы можете отвечать на сообщения
Вы не можете редактировать свои сообщения
Вы не можете удалять свои сообщения
Вы не можете голосовать в опросах
Вы не можете прикреплять файлы к сообщениям
Вы можете скачивать файлы