(Classical) Микули, Теллефсен, Фильч и Гутман / Pupils of Chopin: Mikuli, Tellefsen, Filtsch & Gutmann – Piano works (Hubert Rutkowski) - 2010, FLAC (image+.cue) lossless


 

[Цитировать]

Микули, Теллефсен, Фильч и Гутман / Pupils of Chopin: Mikuli, Tellefsen, Filtsch & Gutmann – Piano works (Hubert Rutkowski)
Жанр: Classical
Страна-производитель диска: Германия
Год издания диска: 2010
Издатель (лейбл): Naxos
Номер по каталогу: 8.572344
Дата записи: 5 июля (1 — 3, 5 — 7, 15, 18), 18 сентября (4, 8 —14, 16, 17, 20) и 7 октября (19, 21, 22) 2009 г., Варшава.
Аудиокодек: FLAC
Тип рипа: image+.cue
Битрейт аудио: lossless
Продолжительность: 01:18:50
Источник: ottorillo на Погружении
Наличие сканов в содержимом раздачи: да
Треклист:-Ученики Шопена: сочинения для фортепиано-Кароль Микули (Пстикян; 1819 —1897).-Два полонеза, op. 8 (опубл. 1862).
01. № 1 g-moll [05:25].
06. № 2 As-dur [04:50].
Десять пьес, op. 24 (опубл. 1880).
02. № 7 fis-moll. В румынском стиле (Alla Rumana) [03:28].
03. № 8 H-dur. Этюд (Etude) [01:29].
04. № 9 Es-dur. Кантилена (Cantilène) [01:56].
05. № 10 g-moll. Экспромтъ (Impromptu) [05:11].-Томас Дюк Акланд Теллефсен (1823 — 1874).-07. Вальс [№ 4] Des-dur, op. 27 (опубл. 1858). Moderato [04:02].
08. Экспромт g-moll, op. 38 (опубл. 1872). Allegro [04:13].
09. «Маленькая нищенка» (La petite mendiante) e-moll, op. 23 (опубл. 1858). Allegro ma non troppo [02:42].
Четыре мазурки, op. 3 (опубл. 1849).
10. № 1 g-moll. Moderato [02:20].
11. № 2 G-dur. Vivace [01:45].
12. № 3 B-dur. Allegro vivace [01:28].
13. № 4 fis-moll. Mesto [03:37].-Карл Фильч (1830 — 1845).-«Первые музыкальные идеи» (Premières pensées musicales), op. 3 (опубл. 1843).
18. № 1. Песня без слов e-moll. Andante espressivo [03:02].
17. № 2. Баркарола Ges-dur. Vivace [01:41].
15. №3. Мазурка es-moll. Tempo moderato. — Trio. — Da capo [04:00].
[Три] изданных посмертно сочинения (опубл. 1864?).
14. № 1. Экспромт [№ 1] Ges-dur (1843). Vivace. — Più lento. — [Tempo I] [04:06].
19. № 2. Экспромт [№ 2] [Скерцо] b-moll (ок. 1843/1844). Presto [05:24].
16. № 3. «Прощание» (Das Lebewohl von Venedig; Adieu!) c-moll (1844/1845?). Andante. — Più mosso. — Largo [03:40].-(Вильгельм) Адольф Гутман (1819 — 1882).-20. Два ноктюрна, op. 8 (опубл. 1844): № 1 (1) As-dur. Andante [03:49].
21. «Пробуждение птиц» (Le réveil des oiseaux), идиллия B-dur, op. 44 (опубл. 1856/1857) [03:53].
22. Болеро c-moll, op. 35 (опубл. 1854/1855) [06:30].-Исполнитель:
Hubert Rutkowski (фортепиано).-

Лог создания рипа

Exact Audio Copy V1.0 beta 3 from 29. August 2011
Отчёт EAC об извлечении, выполненном 16. февраля 2014, 18:35
Various / Piano music by pupils of Chopin
Дисковод: TSSTcorpCDDVDW SH-224DB Adapter: 0 ID: 0
Режим чтения : ДостоверностьИспользование точного потока : ДаОтключение кэша аудио : НетИспользование указателей C2 : Нет
Коррекция смещения при чтении : 6Способность читать области Lead-in и Lead-out : НетЗаполнение пропущенных сэмплов тишиной : ДаУдаление блоков с тишиной в начале и конце : НетПри вычислениях CRC использовались нулевые сэмплы : ДаИнтерфейс : Встроенный Win32-интерфейс для Win NT/2000
Выходной формат : Пользовательский кодировщикВыбранный битрейт : 128 kBit/sКачество : ВысокийДобавление ID3-тега : НетУтилита сжатия : C:\Program Files (x86)\Exact Audio Copy\Flac\flac.exeДополнительные параметры : -V -8 -T "Date=%year%" -T "Genre=%genre%" %source%
TOC извлечённого CD
Трек | Старт | Длительность | Начальный сектор | Конечный сектор --------------------------------------------------------------------- 1 | 0:00.00 | 5:27.18 | 0 | 24542 2 | 5:27.18 | 3:46.15 | 24543 | 41507 3 | 9:13.33 | 1:29.07 | 41508 | 48189 4 | 10:42.40 | 1:56.01 | 48190 | 56890 5 | 12:38.41 | 5:11.53 | 56891 | 80268 6 | 17:50.19 | 4:52.42 | 80269 | 102210 7 | 22:42.61 | 3:59.34 | 102211 | 120169 8 | 26:42.20 | 4:13.54 | 120170 | 139198 9 | 30:55.74 | 2:44.01 | 139199 | 151499 10 | 33:40.00 | 2:15.45 | 151500 | 161669 11 | 35:55.45 | 1:44.18 | 161670 | 169487 12 | 37:39.63 | 1:27.67 | 169488 | 176079 13 | 39:07.55 | 3:44.60 | 176080 | 192939 14 | 42:52.40 | 4:02.21 | 192940 | 211110 15 | 46:54.61 | 3:56.24 | 211111 | 228834 16 | 50:51.10 | 3:44.26 | 228835 | 245660 17 | 54:35.36 | 1:38.41 | 245661 | 253051 18 | 56:14.02 | 3:04.20 | 253052 | 266871 19 | 59:18.22 | 5:23.70 | 266872 | 291166 20 | 64:42.17 | 3:45.31 | 291167 | 308072 21 | 68:27.48 | 3:54.23 | 308073 | 325645 22 | 72:21.71 | 6:26.04 | 325646 | 354599
Характеристики диапазона извлечения и сообщения об ошибках
Выбранный диапазон
Имя файла C:\Users\Игорь\Music\EAC\copPup\Various - Piano music by pupils of Chopin.wav
Пиковый уровень 92.9 % Скорость извлечения 12.5 X Качество диапазона 99.9 % CRC копии 43F413E4 Копирование... OK
Ошибок не произошло
AccurateRip: сводка
Трек 1 : извлечено точно (доверие 2) [367D08D7] (AR v1)Трек 2 : извлечено точно (доверие 2) [A751FEC5] (AR v1)Трек 3 : извлечено точно (доверие 2) [ECAECE92] (AR v1)Трек 4 : извлечено точно (доверие 2) [7FD3C1D3] (AR v1)Трек 5 : извлечено точно (доверие 2) [6C532ECA] (AR v1)Трек 6 : извлечено точно (доверие 2) [1F8DB221] (AR v1)Трек 7 : извлечено точно (доверие 2) [1793DF3B] (AR v1)Трек 8 : извлечено точно (доверие 2) [E20008F4] (AR v1)Трек 9 : извлечено точно (доверие 2) [088A072A] (AR v1)Трек 10 : извлечено точно (доверие 2) [3B7A364C] (AR v1)Трек 11 : извлечено точно (доверие 2) [5B763052] (AR v1)Трек 12 : извлечено точно (доверие 2) [08B654FF] (AR v1)Трек 13 : извлечено точно (доверие 2) [FFCA2A43] (AR v1)Трек 14 : извлечено точно (доверие 2) [79E877D8] (AR v1)Трек 15 : извлечено точно (доверие 2) [B4991885] (AR v1)Трек 16 : извлечено точно (доверие 2) [3F2066D6] (AR v1)Трек 17 : извлечено точно (доверие 2) [717DC5A0] (AR v1)Трек 18 : извлечено точно (доверие 2) [F8CC9416] (AR v1)Трек 19 : извлечено точно (доверие 2) [5F538896] (AR v1)Трек 20 : извлечено точно (доверие 2) [CD267C7B] (AR v1)Трек 21 : извлечено точно (доверие 2) [4F75ED46] (AR v1)Трек 22 : извлечено точно (доверие 2) [1842664B] (AR v1)
Все треки извлечены точно
Конец отчёта
==== Контрольная сумма отчёта 9999DFE6B18F9FD0E640293C4A5574963F24493FBB73344CF9F1F53CFE13B71E ====

Содержание индексной карты (.CUE)

REM GENRE ClassicalREM DATE 2010REM DISCID 3A127816REM COMMENT "ExactAudioCopy v1.0b3"PERFORMER "Hubert Rutkowski"TITLE "Mikuli, Tellefsen, Filtsch & Gutmann – Piano works – Hubert Rutkowski"FILE "Mikuli, Tellefsen, Filtsch & Gutmann – Piano works – Hubert Rutkowski.flac" WAVE TRACK 01 AUDIO TITLE "Mikuli - Two polonaises, Op. 8 - No. 1 in G minor" PERFORMER "Hubert Rutkowski" INDEX 01 00:00:00 TRACK 02 AUDIO TITLE "Mikuli - Ten pieces, Op. 24 - No. 7. Alla Rumana" PERFORMER "Hubert Rutkowski" INDEX 00 05:22:56 INDEX 01 05:27:18 TRACK 03 AUDIO TITLE "Mikuli - Ten pieces, Op. 24 - No. 8. Etude" PERFORMER "Hubert Rutkowski" INDEX 00 09:11:00 INDEX 01 09:13:33 TRACK 04 AUDIO TITLE "Mikuli - Ten pieces, Op. 24 - No. 9. Cantilene" PERFORMER "Hubert Rutkowski" INDEX 00 10:40:30 INDEX 01 10:42:40 TRACK 05 AUDIO TITLE "Mikuli - Ten pieces, Op. 24 - No. 10. Impromptu" PERFORMER "Hubert Rutkowski" INDEX 00 12:36:09 INDEX 01 12:38:41 TRACK 06 AUDIO TITLE "Mikuli - Two polonaises, Op. 8 - No. 2 in A flat major" PERFORMER "Hubert Rutkowski" INDEX 00 17:47:15 INDEX 01 17:50:19 TRACK 07 AUDIO TITLE "Tellefsen - Waltz in D flat major, Op. 27" PERFORMER "Hubert Rutkowski" INDEX 00 22:36:60 INDEX 01 22:42:61 TRACK 08 AUDIO TITLE "Tellefsen - Impromptu in G minor, Op. 38" PERFORMER "Hubert Rutkowski" INDEX 00 26:38:62 INDEX 01 26:42:20 TRACK 09 AUDIO TITLE "Tellefsen - La petite mendiante, Op. 23" PERFORMER "Hubert Rutkowski" INDEX 00 30:52:11 INDEX 01 30:55:74 TRACK 10 AUDIO TITLE "Tellefsen - Four mazurkas, Op. 3 - No. 1 in G minor" PERFORMER "Hubert Rutkowski" INDEX 00 33:34:15 INDEX 01 33:40:00 TRACK 11 AUDIO TITLE "Tellefsen - Four mazurkas, Op. 3 - No. 2 in G major" PERFORMER "Hubert Rutkowski" INDEX 00 35:54:04 INDEX 01 35:55:45 TRACK 12 AUDIO TITLE "Tellefsen - Four mazurkas, Op. 3 - No. 3 in B flat major" PERFORMER "Hubert Rutkowski" INDEX 00 37:39:15 INDEX 01 37:39:63 TRACK 13 AUDIO TITLE "Tellefsen - Four mazurkas, Op. 3 - No. 4 in F sharp minor" PERFORMER "Hubert Rutkowski" INDEX 00 39:06:57 INDEX 01 39:07:55 TRACK 14 AUDIO TITLE "Filtsch - Impromptu No. 1 in G flat major" PERFORMER "Hubert Rutkowski" INDEX 00 42:44:14 INDEX 01 42:52:40 TRACK 15 AUDIO TITLE "Filtsch - Mazurka in E flat minor, Op. 3 no. 3" PERFORMER "Hubert Rutkowski" INDEX 00 46:50:33 INDEX 01 46:54:61 TRACK 16 AUDIO TITLE "Filtsch - Das Lebewohl von Venedig" PERFORMER "Hubert Rutkowski" INDEX 00 50:49:25 INDEX 01 50:51:10 TRACK 17 AUDIO TITLE "Filtsch - Barcarolle in G flat major" PERFORMER "Hubert Rutkowski" INDEX 00 54:29:51 INDEX 01 54:35:36 TRACK 18 AUDIO TITLE "Filtsch - Romanze ohne Worte" PERFORMER "Hubert Rutkowski" INDEX 00 56:10:22 INDEX 01 56:14:02 TRACK 19 AUDIO TITLE "Filtsch - Impromptu No. 2 in B flat minor" PERFORMER "Hubert Rutkowski" INDEX 00 59:12:33 INDEX 01 59:18:22 TRACK 20 AUDIO TITLE "Gutmann - Nocturne in A flat major, Op. 8 no. 1" PERFORMER "Hubert Rutkowski" INDEX 00 64:36:03 INDEX 01 64:42:17 TRACK 21 AUDIO TITLE "Gutmann - Le reveil des oiseaux (Idylle), Op. 44" PERFORMER "Hubert Rutkowski" INDEX 00 68:24:44 INDEX 01 68:27:48 TRACK 22 AUDIO TITLE "Gutmann - Bolero in C minor, Op. 35" PERFORMER "Hubert Rutkowski" INDEX 00 72:17:67 INDEX 01 72:21:71
-Теллефсен и Фильч. Сочинения для фортепиано и оркестра (Einar Steen-Nøkleberg, Terje Mikkelsen).



Показать сообщения:    

Текущее время: 06-Дек 19:04

Часовой пояс: UTC + 3


Вы не можете начинать темы
Вы не можете отвечать на сообщения
Вы не можете редактировать свои сообщения
Вы не можете удалять свои сообщения
Вы не можете голосовать в опросах
Вы не можете прикреплять файлы к сообщениям
Вы не можете скачивать файлы