(Classical) Микули, Теллефсен и Фильч / Pupils of Chopin: Mikuli, Tellefsen & Filtsch – Violin & piano works (Voytek Proniewicz, Александр Якобидзе-Гитман / Alexander Jakobidze-Gitman) - 2011, FLAC (image+.cue) lossless


 

[Цитировать]

Микули, Теллефсен и Фильч / Pupils of Chopin: Mikuli, Tellefsen & Filtsch – Violin & piano works (Voytek Proniewicz, Александр Якобидзе-Гитман / Alexander Jakobidze-Gitman)
Жанр: Classical
Страна-производитель диска: Германия
Год издания диска: 2011
Издатель (лейбл): Naxos
Номер по каталогу: 8.572460
Дата записи: 25 — 26 января (5 — 8 и 12), 28 — 29 января (1 — 4 и 9 — 11) 2010 г., Варшава.
Аудиокодек: FLAC
Тип рипа: image+.cue
Битрейт аудио: lossless
Продолжительность: 01:05:22
Источник: ottorillo на Погружении
Наличие сканов в содержимом раздачи: да
Треклист:-Кароль Микули (Пстикян; 1819 —1897).-Большой дуэт A-dur для фортепиано и скрипки, op. 26 (после 1861?, опубл. 1880).
01. I. Andante con espressione [05:48].
02. II. Allegro giojoso [01:52].
03. III. Lento quasi fantasia [03:32].
04. IV. Finale. Allegro appassianato [07:08].-Томас Дюк Акланд Теллефсен (1823 — 1874).-Соната для фортепиано и скрипки № 1 G-dur, op. 19 (1855 — 1856, опубл. 1856).
05. I. Allegro moderato [04:53].
06. II. Adagio con molto espressione [06:11].
07. III. Scherzo. Presto [05:03].
08. IV. Finale. Allegro vivace [04:48].
Соната для фортепиано и скрипки № 2 e-moll, op. 37 (ок. 1867, опубл. 1872?).
09. I. Largo. — Allegro. — [Кода.] Presto [11:54].
10. II. Интерлюдия (народная песня). Andante. — [01:40].
11. III. Тема с вариациями. Andante [05:20].-Карл Фильч (1830 — 1845).-Аллегретто с вариациями D-dur для скрипки с фортепиано.
12. Тема. Allegretto. —
(13) — Вариация I. —
(14) — Вариация II. —
(15) — Вариация III. —
(16) — Вариация IV. —
(17) — Кода [07:13].-Исполнители:
Voytek Proniewicz (скрипка),
Александр Якобидзе-Гитман (фортепиано).

Лог создания рипа

Exact Audio Copy V1.0 beta 3 from 29. August 2011
Отчёт EAC об извлечении, выполненном 18. февраля 2014, 11:53
Karol Mikuli, Thomas Tellefsen, Carl Filtsch / Music for Violin and Piano by Pupils of Chopin
Дисковод: TSSTcorpCDDVDW SH-224DB Adapter: 0 ID: 0
Режим чтения : ДостоверностьИспользование точного потока : ДаОтключение кэша аудио : НетИспользование указателей C2 : Нет
Коррекция смещения при чтении : 6Способность читать области Lead-in и Lead-out : НетЗаполнение пропущенных сэмплов тишиной : ДаУдаление блоков с тишиной в начале и конце : НетПри вычислениях CRC использовались нулевые сэмплы : ДаИнтерфейс : Встроенный Win32-интерфейс для Win NT/2000
Выходной формат : Пользовательский кодировщикВыбранный битрейт : 128 kBit/sКачество : ВысокийДобавление ID3-тега : НетУтилита сжатия : C:\Program Files (x86)\Exact Audio Copy\Flac\flac.exeДополнительные параметры : -V -8 -T "Date=%year%" -T "Genre=%genre%" %source%
TOC извлечённого CD
Трек | Старт | Длительность | Начальный сектор | Конечный сектор --------------------------------------------------------------------- 1 | 0:00.00 | 5:47.56 | 0 | 26080 2 | 5:47.56 | 1:50.53 | 26081 | 34383 3 | 7:38.34 | 3:32.01 | 34384 | 50284 4 | 11:10.35 | 7:10.55 | 50285 | 82589 5 | 18:21.15 | 4:51.47 | 82590 | 104461 6 | 23:12.62 | 6:11.06 | 104462 | 132292 7 | 29:23.68 | 5:02.60 | 132293 | 155002 8 | 34:26.53 | 4:49.22 | 155003 | 176699 9 | 39:16.00 | 11:54.16 | 176700 | 230265 10 | 51:10.16 | 1:41.07 | 230266 | 237847 11 | 52:51.23 | 5:20.05 | 237848 | 261852 12 | 58:11.28 | 7:08.47 | 261853 | 293999
Характеристики диапазона извлечения и сообщения об ошибках
Выбранный диапазон
Имя файла C:\Users\Игорь\Music\EAC\ChoVln\Karol Mikuli, Thomas Tellefsen, Carl Filtsch - Music for Violin and Piano by Pupils of Chopin.wav
Пиковый уровень 92.0 % Скорость извлечения 11.7 X Качество диапазона 100.0 % CRC копии 08475B7F Копирование... OK
Ошибок не произошло
AccurateRip: сводка
Трек 1 : извлечено точно (доверие 1) [4030AB87] (AR v2)Трек 2 : извлечено точно (доверие 1) [594AC3FA] (AR v2)Трек 3 : извлечено точно (доверие 1) [60B19447] (AR v2)Трек 4 : извлечено точно (доверие 1) [4ED9B891] (AR v2)Трек 5 : извлечено точно (доверие 1) [92A7D934] (AR v2)Трек 6 : извлечено точно (доверие 1) [D701C258] (AR v2)Трек 7 : извлечено точно (доверие 1) [68CEA809] (AR v2)Трек 8 : извлечено точно (доверие 1) [4A9FF3B3] (AR v2)Трек 9 : извлечено точно (доверие 1) [4093090E] (AR v2)Трек 10 : извлечено точно (доверие 1) [D4AC214A] (AR v2)Трек 11 : извлечено точно (доверие 1) [26D3109F] (AR v2)Трек 12 : извлечено точно (доверие 1) [CB68FDB3] (AR v2)
Все треки извлечены точно
Конец отчёта
==== Контрольная сумма отчёта 5CE52980C6BA659E1CA5A0A0774E5AE0BD46B66810BDBC99E1A9D0ED413D186A ====

Содержание индексной карты (.CUE)

REM GENRE "Chamber Music"REM DATE 2011REM DISCID A30F500CREM COMMENT "ExactAudioCopy v1.0b3"PERFORMER "Voytek Proniewicz & Alexander Jakobidze-Gitman"TITLE "Mikuli, Tellefsen & Filtsch – Violin & piano works – Voytek Proniewicz, Alexander Jakobidze-Gitman"FILE "Mikuli, Tellefsen & Filtsch – Violin & piano works – Voytek Proniewicz, Alexander Jakobidze-Gitman.flac" WAVE TRACK 01 AUDIO TITLE "Mikuli - Grand Duo in A major, Op. 26 - I. Andante con espressione" PERFORMER "Voytek Proniewicz & Alexander Jakobidze-Gitman" INDEX 01 00:00:00 TRACK 02 AUDIO TITLE "Mikuli - Grand Duo in A major, Op. 26 - II. Allegro giojoso" PERFORMER "Voytek Proniewicz & Alexander Jakobidze-Gitman" INDEX 00 05:46:17 INDEX 01 05:47:56 TRACK 03 AUDIO TITLE "Mikuli - Grand Duo in A major, Op. 26 - III. Lento quasi fantasia" PERFORMER "Voytek Proniewicz & Alexander Jakobidze-Gitman" INDEX 01 07:38:34 TRACK 04 AUDIO TITLE "Mikuli - Grand Duo in A major, Op. 26 - IV. Finale. Allegro appassianato" PERFORMER "Voytek Proniewicz & Alexander Jakobidze-Gitman" INDEX 01 11:10:35 TRACK 05 AUDIO TITLE "Tellefsen - Violin Sonata No. 1 in G major, Op. 19 - I. Allegro moderato" PERFORMER "Voytek Proniewicz & Alexander Jakobidze-Gitman" INDEX 00 18:18:57 INDEX 01 18:21:15 TRACK 06 AUDIO TITLE "Tellefsen - Violin Sonata No. 1 in G major, Op. 19 - II. Adagio con molto espressione" PERFORMER "Voytek Proniewicz & Alexander Jakobidze-Gitman" INDEX 00 23:11:49 INDEX 01 23:12:62 TRACK 07 AUDIO TITLE "Tellefsen - Violin Sonata No. 1 in G major, Op. 19 - III. Scherzo. Presto" PERFORMER "Voytek Proniewicz & Alexander Jakobidze-Gitman" INDEX 00 29:22:15 INDEX 01 29:23:68 TRACK 08 AUDIO TITLE "Tellefsen - Violin Sonata No. 1 in G major, Op. 19 - IV. Finale. Allegro vivace" PERFORMER "Voytek Proniewicz & Alexander Jakobidze-Gitman" INDEX 00 34:25:39 INDEX 01 34:26:53 TRACK 09 AUDIO TITLE "Tellefsen - Violin Sonata No. 2 in E minor, Op. 37 - I. Allegro" PERFORMER "Voytek Proniewicz & Alexander Jakobidze-Gitman" INDEX 00 39:13:09 INDEX 01 39:16:00 TRACK 10 AUDIO TITLE "Tellefsen - Violin Sonata No. 2 in E minor, Op. 37 - II. Interlude" PERFORMER "Voytek Proniewicz & Alexander Jakobidze-Gitman" INDEX 00 51:07:17 INDEX 01 51:10:16 TRACK 11 AUDIO TITLE "Tellefsen - Violin Sonata No. 2 in E minor, Op. 37 - III. Theme varie" PERFORMER "Voytek Proniewicz & Alexander Jakobidze-Gitman" INDEX 01 52:51:23 TRACK 12 AUDIO TITLE "Filtsch - Allegretto con variazioni in D major" PERFORMER "Voytek Proniewicz & Alexander Jakobidze-Gitman" INDEX 00 58:07:12 INDEX 01 58:11:28

Вариант индексной карты (.CUE) сисправленными зазорами и разделением вариаций Фильча на несколько треков

REM GENRE "Chamber Music"REM DATE 2011REM DISCID A30F500CREM COMMENT "ExactAudioCopy v1.0b3"PERFORMER "Voytek Proniewicz & Alexander Jakobidze-Gitman"TITLE "Mikuli, Tellefsen & Filtsch – Violin & piano works – Voytek Proniewicz, Alexander Jakobidze-Gitman"FILE "Mikuli, Tellefsen & Filtsch – Violin & piano works – Voytek Proniewicz, Alexander Jakobidze-Gitman.flac" WAVE TRACK 01 AUDIO TITLE "Mikuli - Grand Duo in A major, Op. 26 - I. Andante con espressione" PERFORMER "Voytek Proniewicz & Alexander Jakobidze-Gitman" INDEX 00 00:00:00 INDEX 01 00:00:72 TRACK 02 AUDIO TITLE "Mikuli - Grand Duo in A major, Op. 26 - II. Allegro giojoso" PERFORMER "Voytek Proniewicz & Alexander Jakobidze-Gitman" INDEX 01 05:47:56 TRACK 03 AUDIO TITLE "Mikuli - Grand Duo in A major, Op. 26 - III. Lento quasi fantasia" PERFORMER "Voytek Proniewicz & Alexander Jakobidze-Gitman" INDEX 01 07:38:34 TRACK 04 AUDIO TITLE "Mikuli - Grand Duo in A major, Op. 26 - IV. Finale. Allegro appassianato" PERFORMER "Voytek Proniewicz & Alexander Jakobidze-Gitman" INDEX 01 11:10:55 TRACK 05 AUDIO TITLE "Tellefsen - Violin Sonata No. 1 in G major, Op. 19 - I. Allegro moderato" PERFORMER "Voytek Proniewicz & Alexander Jakobidze-Gitman" INDEX 00 18:18:57 INDEX 01 18:21:15 TRACK 06 AUDIO TITLE "Tellefsen - Violin Sonata No. 1 in G major, Op. 19 - II. Adagio con molto espressione" PERFORMER "Voytek Proniewicz & Alexander Jakobidze-Gitman" INDEX 01 23:12:62 TRACK 07 AUDIO TITLE "Tellefsen - Violin Sonata No. 1 in G major, Op. 19 - III. Scherzo. Presto" PERFORMER "Voytek Proniewicz & Alexander Jakobidze-Gitman" INDEX 01 29:23:68 TRACK 08 AUDIO TITLE "Tellefsen - Violin Sonata No. 1 in G major, Op. 19 - IV. Finale. Allegro vivace" PERFORMER "Voytek Proniewicz & Alexander Jakobidze-Gitman" INDEX 01 34:26:53 TRACK 09 AUDIO TITLE "Tellefsen - Violin Sonata No. 2 in E minor, Op. 37 - I. Allegro" PERFORMER "Voytek Proniewicz & Alexander Jakobidze-Gitman" INDEX 00 39:13:09 INDEX 01 39:16:00 TRACK 10 AUDIO TITLE "Tellefsen - Violin Sonata No. 2 in E minor, Op. 37 - II. Interlude" PERFORMER "Voytek Proniewicz & Alexander Jakobidze-Gitman" INDEX 00 51:09:03 INDEX 01 51:10:25 TRACK 11 AUDIO TITLE "Tellefsen - Violin Sonata No. 2 in E minor, Op. 37 - III. Theme varie" PERFORMER "Voytek Proniewicz & Alexander Jakobidze-Gitman" INDEX 01 52:51:23 TRACK 12 AUDIO TITLE "Filtsch - Allegretto con variazioni in D major - Tema -" PERFORMER "Voytek Proniewicz & Alexander Jakobidze-Gitman" INDEX 00 58:07:12 INDEX 01 58:11:28 TRACK 13 AUDIO TITLE "Filtsch - Allegretto con variazioni in D major - Variazione I -" PERFORMER "Voytek Proniewicz & Alexander Jakobidze-Gitman" INDEX 01 59:01:61 TRACK 14 AUDIO TITLE "Filtsch - Allegretto con variazioni in D major - Variazione II -" PERFORMER "Voytek Proniewicz & Alexander Jakobidze-Gitman" INDEX 01 59:31:58 TRACK 15 AUDIO TITLE "Filtsch - Allegretto con variazioni in D major - Variazione III -" PERFORMER "Voytek Proniewicz & Alexander Jakobidze-Gitman" INDEX 01 60:12:31 TRACK 16 AUDIO TITLE "Filtsch - Allegretto con variazioni in D major - Variazione IV -" PERFORMER "Voytek Proniewicz & Alexander Jakobidze-Gitman" INDEX 01 61:57:12 TRACK 17 AUDIO TITLE "Filtsch - Allegretto con variazioni in D major - Coda" PERFORMER "Voytek Proniewicz & Alexander Jakobidze-Gitman" INDEX 01 63:33:03 INDEX 02 65:17:60
--Теллефсен и Фильч. Сочинения для фортепиано и оркестра (Einar Steen-Nøkleberg, Terje Mikkelsen).
Микули, Теллфесен, Фильч и Гутман. Сочинения для фортепиано (Hubert Rutkowski).



Показать сообщения:    

Текущее время: 09-Дек 10:49

Часовой пояс: UTC + 3


Вы не можете начинать темы
Вы не можете отвечать на сообщения
Вы не можете редактировать свои сообщения
Вы не можете удалять свои сообщения
Вы не можете голосовать в опросах
Вы не можете прикреплять файлы к сообщениям
Вы не можете скачивать файлы