(Classical, period) Farewell to the Homeland – The romantic spirit of Polish piano music: Oginski, Kurpinski, Szymanowska, Elsner, Chopin, Dobrzynski, Krogulski, Mikuli, Zaluski, Ignaz Friedman (Tobias Koch) - 2014, FLAC (image+.cue) lossless


 

[Цитировать]

Farewell to the Homeland – The romantic spirit of Polish piano music: Ogiński, Kurpiński, Szymanowska, Elsner, Chopin, Dobrzyński, Krogulski, Mikuli, Załuski, Ignaz Friedman (Tobias Koch, Katarzyna Drogosz)
Жанр: Classical, period
Страна-производитель диска: Польша?
Год издания диска: 2014
Издатель (лейбл): NIFC (Narodowy Instytut Fryderyka Chopina)
Номер по каталогу: NIFCCD 104
Дата записи: 19 — 22 мая 2014 г., Варшава
Аудиокодек: FLAC
Тип рипа: image+.cue
Битрейт аудио: lossless
Продолжительность: 01:05:25
Источник: odeonmusic
Наличие сканов в содержимом раздачи: да
Треклист:-Прощание с родиной: польская романтическая музыка для фортепиано.-Михаил Клеофас Огиньский (1765 — 1833).
01. Полонез a-moll «Прощание с родиной», KZ 13 (1794) [02:45].
Кароль Казимеж Курпиньский (1785 — 1857).
02. Полонез d-moll (1812) [04:55].
03. Полонез g-moll (1812) [03:07].
04. Полонез f-moll (1813) [05:40].
05. Полонез C-dur (1818) [03:56].
13. Мазурка D-dur (1825) [01:11].
Мария Шимановская (урожд. Марианна Агата Воловская; 1789 — 1831).
06. Восемнадцать танцев (опубл. ок. 1820): № 4. Полонез f-moll [05:32].
07. Ноктюрн [№ 2] B-dur (опубл. 1852) [05:21].
08. Четыре вальса для фортепиано в три руки (опубл. ок. 1820): № 3 F-dur [00:57].
09. Двадцать этюдов и прелюдий (опубл. 1820): № 1 F-dur. Vivace [01:38].
10. Ноктюрн [№ 1] As-dur «Шепот» (Le Murmure; 1825?), оригинальная версия для фортепиано в три руки [04:12].
14. Двадцать четыре мазурки, или польских национальных танца (опубл. ок. 1825): № 17 C-dur [00:35].
Юзеф Антоний Францишек (Йозеф Ксавер) Эльснер (1769 — 1854).
11. Рондо-мазурка (Rondo à la Mazurek) C-dur для клавира (опубл. 1803) [04:23].
Фредерик Франсуа Шопен (1810 — 1849).
12. Четыре мазурки, op. 7 (до 1832, опубл. 1832): № 4 (8) As-dur, первая версия (т. наз. № 4a, 1824). Presto ma non troppo [01:23].
20. Четыре мазурки, op. 68 posth. (опубл. 1855): № 4 (51) f-moll (1849). Andantino [04:13].
Игнаций Феликс Добжиньский (1807 — 1867).
15. Две мазурки, op. 37 (ок. 1840): № 2 a-moll. Allegretto innocente [03:20].
Юзеф Владислав Крогульский (1815 — 1842).
16. Мазурка e-moll «в духе Шопена» (à la Chopin; 1836) [02:37].
Кароль Микули (Пстикян; 1819 —1897).
17. Мазурка f-moll, op. 4 [?] (опубл. 1860) [05:09].
Кароль Бернард Залуский (1834 — 1919).
18. Мазурка d-moll, op. 6 № 3 (после 1849) [02:04].
Игнац Фридман (Соломон Исаак Фрейдман; 1882 — 1948).
19. Две мазурки, op. 49 (1912): № 2 c-moll [02:16].-Исполнители:
Tobias Koch (фортепиано эпохи).
Katarzyna Drogosz (фортепиано, 10).
Инструменты:
Érard, 1838 (11 — 16);
Pleyel, 1848 (1, 8 — 10);
Érard, 1849 (2 — 5, 17 — 20);
Pleyel, 1854 (6 — 7).

Лог создания рипа

Exact Audio Copy V1.0 beta 3 from 29. August 2011
EAC extraction logfile from 28. October 2014, 18:07
Tobias Koch / VC - Farewell to the homeland - the romantic spirit of Polish piano music - Tobias Koch
Used drive : TSSTcorpCDDVDW SH-222BB Adapter: 2 ID: 1
Read mode : SecureUtilize accurate stream : YesDefeat audio cache : YesMake use of C2 pointers : No
Read offset correction : 6Overread into Lead-In and Lead-Out : NoFill up missing offset samples with silence : YesDelete leading and trailing silent blocks : NoNull samples used in CRC calculations : YesUsed interface : Native Win32 interface for Win NT & 2000
Used output format : User Defined EncoderSelected bitrate : 896 kBit/sQuality : HighAdd ID3 tag : NoCommand line compressor : C:\Program Files\Exact Audio Copy\FLAC\FLAC.EXEAdditional command line options : -8 -V -T "TITLE=%title%" -T "ARTIST=%artist%" -T "ALBUMARTIST=%albumartist%" -T "ALBUM=%albumtitle%" -T "DATE=%year%" -T "TRACKNUMBER=%tracknr%" -T "TRACKTOTAL=%numtracks%" -T "GENRE=%genre%" -T "COMMENT=%comment%" -T "PERFORMER=%albuminterpret%" -T "COMPOSER=%composer%" %source% -o %dest%
TOC of the extracted CD
Track | Start | Length | Start sector | End sector --------------------------------------------------------- 1 | 0:00.00 | 2:46.05 | 0 | 12454 2 | 2:46.05 | 4:55.17 | 12455 | 34596 3 | 7:41.22 | 3:07.10 | 34597 | 48631 4 | 10:48.32 | 5:41.12 | 48632 | 74218 5 | 16:29.44 | 3:56.24 | 74219 | 91942 6 | 20:25.68 | 5:31.48 | 91943 | 116815 7 | 25:57.41 | 5:21.61 | 116816 | 140951 8 | 31:19.27 | 0:57.32 | 140952 | 145258 9 | 32:16.59 | 1:38.14 | 145259 | 152622 10 | 33:54.73 | 4:12.21 | 152623 | 171543 11 | 38:07.19 | 4:24.35 | 171544 | 191378 12 | 42:31.54 | 1:22.36 | 191379 | 197564 13 | 43:54.15 | 1:11.46 | 197565 | 202935 14 | 45:05.61 | 0:35.03 | 202936 | 205563 15 | 45:40.64 | 3:20.50 | 205564 | 220613 16 | 49:01.39 | 2:36.46 | 220614 | 232359 17 | 51:38.10 | 5:09.44 | 232360 | 255578 18 | 56:47.54 | 2:04.68 | 255579 | 264946 19 | 58:52.47 | 2:17.48 | 264947 | 275269 20 | 61:10.20 | 4:11.49 | 275270 | 294143
Range status and errors
Selected range
Filename G:\Ripped general\[7701] VC - Farewell to the homeland – the romantic spirit of Polish piano music – Tobias Koch\VC - Farewell to the homeland - the romantic spirit of Polish piano music - Tobias Koch.wav
Peak level 97.8 % Extraction speed 6.5 X Range quality 99.9 % Test CRC 9D66827D Copy CRC 9D66827D Copy OK
No errors occurred
AccurateRip summary
Track 1 not present in databaseTrack 2 not present in databaseTrack 3 not present in databaseTrack 4 not present in databaseTrack 5 not present in databaseTrack 6 not present in databaseTrack 7 not present in databaseTrack 8 not present in databaseTrack 9 not present in databaseTrack 10 not present in databaseTrack 11 not present in databaseTrack 12 not present in databaseTrack 13 not present in databaseTrack 14 not present in databaseTrack 15 not present in databaseTrack 16 not present in databaseTrack 17 not present in databaseTrack 18 not present in databaseTrack 19 not present in databaseTrack 20 not present in database
None of the tracks are present in the AccurateRip database
End of status report
==== Log checksum 7824BDB8E326844D1E753D68C5362227A4B2238AD6E3A97F3D439E424A205DD8 ====

Содержание индексной карты (.CUE)

REM GENRE ClassicalREM DISCID 2A0F5114REM COMMENT "ExactAudioCopy v1.0b3"PERFORMER "Tobias Koch"TITLE "Farewell to the homeland – The romantic spirit of Polish piano music – Tobias Koch"FILE "Farewell to the homeland – The romantic spirit of Polish piano music – Tobias Koch.flac" WAVE TRACK 01 AUDIO TITLE "Oginski - Polonaise in A minor 'Farewell to the Homeland' (1794)" PERFORMER "Tobias Koch" ISRC PLC701410401 INDEX 01 00:00:00 TRACK 02 AUDIO TITLE "Kurpinski - Polonaise in D minor (1812)" PERFORMER "Tobias Koch" ISRC PLC701410402 INDEX 01 02:46:05 TRACK 03 AUDIO TITLE "Kurpinski - Polonaise in G minor (1812)" PERFORMER "Tobias Koch" ISRC PLC701410403 INDEX 01 07:41:22 TRACK 04 AUDIO TITLE "Kurpinski - Polonaise in F minor (1813)" PERFORMER "Tobias Koch" ISRC PLC701410404 INDEX 01 10:48:32 TRACK 05 AUDIO TITLE "Kurpinski - Polonaise in C major (1818)" PERFORMER "Tobias Koch" ISRC PLC701410405 INDEX 01 16:29:44 TRACK 06 AUDIO TITLE "Maria Szymanowska - Polonaise in F minor (pub. 1820)" PERFORMER "Tobias Koch" ISRC PLC701410406 INDEX 01 20:25:68 TRACK 07 AUDIO TITLE "Maria Szymanowska - Nocturne in B flat major (pub. 1852)" PERFORMER "Tobias Koch" ISRC PLC701410407 INDEX 01 25:57:41 TRACK 08 AUDIO TITLE "Maria Szymanowska - Waltz No. 3 in F major (pub. 1820)" PERFORMER "Tobias Koch" ISRC PLC701410408 INDEX 01 31:19:27 TRACK 09 AUDIO TITLE "Maria Szymanowska - Etude in F major, No. 1 from 'Vingt exercices et preludes' (pub. 1820)" PERFORMER "Tobias Koch" ISRC PLC701410408 INDEX 01 32:16:59 TRACK 10 AUDIO TITLE "Maria Szymanowska - Nocturne in A flat major 'Le Murmure' (ca. 1825), version for three hands" PERFORMER "Tobias Koch" ISRC PLC701410410 INDEX 01 33:54:73 TRACK 11 AUDIO TITLE "Elsner - Rondo a la Mazurka in C major (1803)" PERFORMER "Tobias Koch" ISRC PLC701410410 INDEX 01 38:07:19 TRACK 12 AUDIO TITLE "Chopin - Mazurka in A flat major, Op. 7 no. 4a (before 1832)" PERFORMER "Tobias Koch" ISRC PLC701410412 INDEX 01 42:31:54 TRACK 13 AUDIO TITLE "Kurpinski - Mazurka in D major (1825)" PERFORMER "Tobias Koch" ISRC PLC701410413 INDEX 01 43:54:15 TRACK 14 AUDIO TITLE "Maria Szymanowska - Mazurka in C major, No. 17 from 'Vingt-quatre mazurkas' (ca. 1825)" PERFORMER "Tobias Koch" ISRC PLC701410414 INDEX 01 45:05:61 TRACK 15 AUDIO TITLE "Dobrzynski - Mazurka in A minor, Op. 37 no. 2 (1840)" PERFORMER "Tobias Koch" ISRC PLC701410415 INDEX 01 45:40:64 TRACK 16 AUDIO TITLE "Krogulski - Mazurka in E minor 'а la Chopin' (1836)" PERFORMER "Tobias Koch" ISRC PLC701410416 INDEX 01 49:01:39 TRACK 17 AUDIO TITLE "Mikuli - Mazurka in F minor, Op. 34 (1860)" PERFORMER "Tobias Koch" ISRC PLC701410417 INDEX 01 51:38:10 TRACK 18 AUDIO TITLE "Zaluski - Mazurka in D minor, Op. 6 no. 3 (after 1849)" PERFORMER "Tobias Koch" ISRC PLC701410417 INDEX 01 56:47:54 TRACK 19 AUDIO TITLE "Ignacy Friedman - Mazurka in C minor, Op. 49 no. 2 (1912)" PERFORMER "Tobias Koch" ISRC PLC701410419 INDEX 01 58:52:47 TRACK 20 AUDIO TITLE "Chopin - Mazurka in F minor, Op. 68 no. 4 (1849)" PERFORMER "Tobias Koch" ISRC PLC701410419 INDEX 01 61:10:20

Вариант индексной карты (.CUE) с выставленными зазорами

REM GENRE ClassicalREM DISCID 2A0F5114REM COMMENT "ExactAudioCopy v1.0b3"PERFORMER "Tobias Koch"TITLE "Farewell to the homeland – The romantic spirit of Polish piano music – Tobias Koch"FILE "Farewell to the homeland – The romantic spirit of Polish piano music – Tobias Koch.flac" WAVE TRACK 01 AUDIO TITLE "Oginski - Polonaise in A minor 'Farewell to the Homeland' (1794)" PERFORMER "Tobias Koch" ISRC PLC701410401 INDEX 00 00:00:00 INDEX 01 00:00:62 TRACK 02 AUDIO TITLE "Kurpinski - Polonaise in D minor (1812)" PERFORMER "Tobias Koch" ISRC PLC701410402 INDEX 00 02:41:64 INDEX 01 02:46:05 TRACK 03 AUDIO TITLE "Kurpinski - Polonaise in G minor (1812)" PERFORMER "Tobias Koch" ISRC PLC701410403 INDEX 01 07:41:22 TRACK 04 AUDIO TITLE "Kurpinski - Polonaise in F minor (1813)" PERFORMER "Tobias Koch" ISRC PLC701410404 INDEX 00 10:46:43 INDEX 01 10:48:32 TRACK 05 AUDIO TITLE "Kurpinski - Polonaise in C major (1818)" PERFORMER "Tobias Koch" ISRC PLC701410405 INDEX 01 16:29:44 TRACK 06 AUDIO TITLE "Maria Szymanowska - Polonaise in F minor (pub. 1820)" PERFORMER "Tobias Koch" ISRC PLC701410406 INDEX 00 20:23:49 INDEX 01 20:25:68 TRACK 07 AUDIO TITLE "Maria Szymanowska - Nocturne in B flat major (pub. 1852)" PERFORMER "Tobias Koch" ISRC PLC701410407 INDEX 00 25:55:25 INDEX 01 25:57:41 TRACK 08 AUDIO TITLE "Maria Szymanowska - Waltz No. 3 in F major (pub. 1820)" PERFORMER "Tobias Koch" ISRC PLC701410408 INDEX 00 31:18:28 INDEX 01 31:19:27 TRACK 09 AUDIO TITLE "Maria Szymanowska - Etude in F major, No. 1 from 'Vingt exercices et preludes' (pub. 1820)" PERFORMER "Tobias Koch" ISRC PLC701410408 INDEX 01 32:16:59 TRACK 10 AUDIO TITLE "Maria Szymanowska - Nocturne in A flat major 'Le Murmure' (ca. 1825), version for three hands" PERFORMER "Tobias Koch" ISRC PLC701410410 INDEX 00 33:51:65 INDEX 01 33:54:73 TRACK 11 AUDIO TITLE "Elsner - Rondo a la Mazurka in C major (1803)" PERFORMER "Tobias Koch" ISRC PLC701410410 INDEX 00 38:05:69 INDEX 01 38:07:52 TRACK 12 AUDIO TITLE "Chopin - Mazurka in A flat major, Op. 7 no. 4a (before 1832)" PERFORMER "Tobias Koch" ISRC PLC701410412 INDEX 01 42:31:54 TRACK 13 AUDIO TITLE "Kurpinski - Mazurka in D major (1825)" PERFORMER "Tobias Koch" ISRC PLC701410413 INDEX 00 43:51:60 INDEX 01 43:54:62 TRACK 14 AUDIO TITLE "Maria Szymanowska - Mazurka in C major, No. 17 from 'Vingt-quatre mazurkas' (ca. 1825)" PERFORMER "Tobias Koch" ISRC PLC701410414 INDEX 01 45:05:61 TRACK 15 AUDIO TITLE "Dobrzynski - Mazurka in A minor, Op. 37 no. 2 (1840)" PERFORMER "Tobias Koch" ISRC PLC701410415 INDEX 01 45:40:64 TRACK 16 AUDIO TITLE "Krogulski - Mazurka in E minor 'а la Chopin' (1836)" PERFORMER "Tobias Koch" ISRC PLC701410416 INDEX 00 48:57:68 INDEX 01 49:02:13 TRACK 17 AUDIO TITLE "Mikuli - Mazurka in F minor, Op. 34 (1860)" PERFORMER "Tobias Koch" ISRC PLC701410417 INDEX 00 51:37:68 INDEX 01 51:38:47 TRACK 18 AUDIO TITLE "Zaluski - Mazurka in D minor, Op. 6 no. 3 (after 1849)" PERFORMER "Tobias Koch" ISRC PLC701410417 INDEX 00 56:45:12 INDEX 01 56:47:54 TRACK 19 AUDIO TITLE "Ignacy Friedman - Mazurka in C minor, Op. 49 no. 2 (1912)" PERFORMER "Tobias Koch" ISRC PLC701410419 INDEX 00 58:49:23 INDEX 01 58:52:47 TRACK 20 AUDIO TITLE "Chopin - Mazurka in F minor, Op. 68 no. 4 (1849)" PERFORMER "Tobias Koch" ISRC PLC701410419 INDEX 00 61:02:69 INDEX 01 61:10:20 INDEX 02 65:12:67



Показать сообщения:    

Текущее время: 03-Дек 01:16

Часовой пояс: UTC + 3


Вы не можете начинать темы
Вы не можете отвечать на сообщения
Вы не можете редактировать свои сообщения
Вы не можете удалять свои сообщения
Вы не можете голосовать в опросах
Вы не можете прикреплять файлы к сообщениям
Вы не можете скачивать файлы