Тряпка / Чистка / Ссора / Безупречная репутация / Coup de torchon / Clean Slate (Бертран Тавернье / Bertrand Tavernier) [1981, Франция, трагикомедия, криминальная драма, DVDRip-AVC] DVO (НТВ) + DVO (ОРТ) + Sub Rus + Original Fre


Статистика раздачи [Обновить пиров]
Размер:  1.96 GB   |    Зарегистрирован:  1 год   |    Скачан:  0 раз

Полного источника не было: Никогда

Личеров:  4  [  0 KB/s  ]   Подробная статистика пиров
 
   
 
 
 

[Цитировать]

Тряпка / Чистка / Ссора / Безупречная репутация / Coup de torchon / Clean Slate
Страна: Франция
Жанр: трагикомедия, криминальная драма
Год выпуска: 1981
Продолжительность: 02:08:40
Перевод: Профессиональный (двухголосый закадровый) НТВ: А. Каменкова и А. Белявский
Перевод 2: Профессиональный (двухголосый закадровый) ОРТ
Cубтитры: русские
Оригинальная аудиодорожка: французский
Режиссер: Бертран Тавернье / Bertrand Tavernier
В ролях: Филип Нуаре / Philippe Noiret, Изабель Юппер / Isabelle Huppert, Жан-Пьер Мариель / Jean-Pierre Marielle, Стефан Одран / Stéphane Audran, Ги Маршан / Guy Marchand, Эдди Митчел / Eddy Mitchell
Описание: 1938 год. Люсьена Кордье, шефа полиции маленького городка в Восточной Африке, никто не воспринимает всерьез, все считают его идиотом и тряпкой, а местные "авторитеты" откровенно издеваются над ним. Свихнувшись от постоянных унижений, блюститель порядка, начинает мнить себя ангелом-истребителем - методично уничтожая своих недругов, он пребывает в уверенности, что тем самым избавляет от страданий не только окружающих, но и самих жертв.
Доп. информация: Рип с DVD9 из раздачи http://teatrix.ru/viewtopic.php?t=10789
Первой стоит озвучка, сделанная НТВ в середине 90-х. В ней, во-первых, нет "дырок" (как в более поздней ОРТшной), а, во-вторых, ее исполнили суперпрофи - Анна Каменкова и Александр Белявский.
Сэмпл: http://multi-up.com/1075788
Качество видео: DVDRip-AVC
Формат видео: MKV
Видео: V_MPEG4/ISO/AVC, 704@831x480, 1.731, 23.976 fps, 1 657 Kbps
Аудио: AC-3, 48.0 KHz, 2 channels, 192 Kbps
Аудио 2: MP3,48.0 KHz, 1 ch, 96 Kbps
Аудио 3: AC-3, 48.0 KHz, 2 channels, 192 Kbps
Формат субтитров: softsub (SRT)

MediaInfo

General
Unique ID : 195204690584697477154675872459783917338 (0x92DB0E4EB0424B0B98E054A3722BCF1A)
Complete name : D:\temp\CoupDeTorchon.1981.2xRus.Fr.DVDRip-AVC.mkv
Format : Matroska
Format version : Version 4 / Version 2
File size : 1.96 GiB
Duration : 2h 8mn
Overall bit rate : 2 181 Kbps
Encoded date : UTC 2015-11-18 04:34:25
Writing application : mkvmerge v7.9.0 ('Birds') 32bit
Writing library : libebml v1.3.1 + libmatroska v1.4.2
_STATISTICS_WRITING_APP : mkvmerge v7.9.0 ('Birds') 32bit
_STATISTICS_WRITING_DATE_UTC : 2015-11-18 04:34:25
_STATISTICS_TAGS : BPS DURATION NUMBER_OF_FRAMES NUMBER_OF_BYTES
DURATION : 02:03:53.788000000
NUMBER_OF_FRAMES : 1343
NUMBER_OF_BYTES : 88953
Video
ID : 1
Format : AVC
Format/Info : Advanced Video Codec
Format profile : High@L4.0
Format settings, CABAC : Yes
Format settings, ReFrames : 16 frames
Codec ID : V_MPEG4/ISO/AVC
Duration : 2h 8mn
Bit rate : 1 657 Kbps
Width : 704 pixels
Height : 480 pixels
Display aspect ratio : 1.731
Frame rate mode : Constant
Frame rate : 23.976 fps
Standard : NTSC
Color space : YUV
Chroma subsampling : 4:2:0
Bit depth : 8 bits
Scan type : Progressive
Bits/(Pixel*Frame) : 0.205
Stream size : 1.49 GiB (76%)
Writing library : x264 core 146 r2538 121396c
Encoding settings : cabac=1 / ref=16 / deblock=1:-1:-1 / analyse=0x3:0x133 / me=umh / subme=10 / psy=1 / psy_rd=1.00:0.15 / mixed_ref=1 / me_range=28 / chroma_me=1 / trellis=2 / 8x8dct=1 / cqm=0 / deadzone=21,11 / fast_pskip=1 / chroma_qp_offset=-3 / threads=6 / lookahead_threads=1 / sliced_threads=0 / nr=0 / decimate=1 / interlaced=0 / bluray_compat=0 / constrained_intra=0 / bframes=3 / b_pyramid=2 / b_adapt=2 / b_bias=0 / direct=3 / weightb=1 / open_gop=0 / weightp=2 / keyint=96 / keyint_min=23 / scenecut=40 / intra_refresh=0 / rc_lookahead=60 / rc=crf / mbtree=1 / crf=20.5 / qcomp=0.60 / qpmin=0 / qpmax=69 / qpstep=4 / vbv_maxrate=20000 / vbv_bufsize=25000 / crf_max=0.0 / nal_hrd=none / filler=0 / ip_ratio=1.40 / aq=1:1.00
Default : Yes
Forced : No
Audio #1
ID : 2
Format : AC-3
Format/Info : Audio Coding 3
Mode extension : CM (complete main)
Format settings, Endianness : Big
Codec ID : A_AC3
Duration : 2h 8mn
Bit rate mode : Constant
Bit rate : 192 Kbps
Channel(s) : 2 channels
Channel positions : Front: L R
Sampling rate : 48.0 KHz
Bit depth : 16 bits
Compression mode : Lossy
Stream size : 177 MiB (9%)
Title : Rus DVO
Language : Russian
Default : Yes
Forced : No
Audio #2
ID : 3
Format : MPEG Audio
Format version : Version 1
Format profile : Layer 3
Codec ID : A_MPEG/L3
Codec ID/Hint : MP3
Duration : 2h 8mn
Bit rate mode : Constant
Bit rate : 96.0 Kbps
Channel(s) : 1 channel
Sampling rate : 48.0 KHz
Compression mode : Lossy
Stream size : 88.4 MiB (4%)
Title : MVO
Language : Russian
Default : No
Forced : No
Audio #3
ID : 5
Format : AC-3
Format/Info : Audio Coding 3
Mode extension : CM (complete main)
Format settings, Endianness : Big
Codec ID : A_AC3
Duration : 2h 8mn
Bit rate mode : Constant
Bit rate : 192 Kbps
Channel(s) : 2 channels
Channel positions : Front: L R
Sampling rate : 48.0 KHz
Bit depth : 16 bits
Compression mode : Lossy
Stream size : 177 MiB (9%)
Title : Fr Org
Language : French
Default : No
Forced : No
Text
ID : 4
Format : UTF-8
Codec ID : S_TEXT/UTF8
Codec ID/Info : UTF-8 Plain Text
Title : rus (full)
Language : Russian
Default : No
Forced : No

Скриншот c названием фильма

Скриншоты

[teatrix.ru].t10788.torrent 
Торрент: Зарегистрирован [ 2015-11-19 16:31 ] · D7046C47BC3B6CF5C20A078C6DA4836185D984BC

Скачать .torrent

Скачать

20 KB

Статус: проверено
Скачан: 0 раз
Размер: 1.96 GB
terms.php



Быстрый ответ

Имя:

      
Для отправки сообщений необходимо включить JavaScript
Показать сообщения:    

Текущее время: 03-Дек 20:45

Часовой пояс: UTC + 3


Вы можете начинать темы
Вы можете отвечать на сообщения
Вы не можете редактировать свои сообщения
Вы не можете удалять свои сообщения
Вы не можете голосовать в опросах
Вы не можете прикреплять файлы к сообщениям
Вы можете скачивать файлы