[TR24][OF] David Chesky - Rap Symphony - 2014 (Classical, Rap)

DL-List and Torrent activity [Update пиров]
Size:  437 MB   |    Registered:  11 months 7 days   |    Completed:  1 time

Seeder not seen: 4 months 22 days

Leechers:  3  [  0 KB/s  ]   Show peers in full details


David Chesky - Rap Symphony
Жанр: Classical, Rap
Носитель: WEB
Страна-производитель диска: США
Год издания: 2014
Издатель (лейбл): Chesky Records
Номер по каталогу: JD364
Аудиокодек: FLAC 24bit/48kHz (*.flac)
Тип рипа: tracks
Битрейт аудио: lossless
Продолжительность: 45:03
Источник (релизер): transgressions (hqshare)
Наличие сканов в содержимом раздачи: да
01. Rap Symphony (feat. Mike Two and Leber as the Rappers) (19:16)
02. Street Beats (For Percussion Quartet) (9:10)
Central Park Dances
03. Dance No.1 (6:45)
04. Dance No.2 (4:56)
05. Dance No.3 (4:56)
Orchestra of the 21st Century
All compositions by David Chesky.
Recorded in New York in January 2014.

Об альбоме (сборнике)

It was back in 1982 that Grandmaster Flash and the Furious Five sounded the alarm about mounting tensions in the urban jungle of New York City with their chilling social commentary rap anthem “The Message” (“Don’t push me ‘cause I’m close to the edge/I’m trying hard not to lose my head/It’s like a jungle sometimes it makes me wonder/How I keep from goin’ under”).
Thirty-two years later, classical composer David Chesky is ringing that same warning bell with his Rap Symphony. A darkly dissonant, harrowing work that addresses such modern maladies as the superficiality of reality TV, a corrupt and crumbling financial base and the blatant worship of the almighty dollar over art while “New York is burning.” Chesky’s existential opus by his 21st Century Orchestra (featuring rappers MIKE TWO and LEBER) is bound to shake up the status quo while pointing out the need for the classical music establishment to acknowledge the real world of today.
While the music stands on its own merit and will certainly appeal to adventurous listeners who have already embraced the music of 20th century classical composers, the presence of rappers is bound to be off-putting to the uninitiated. But Chesky felt compelled to include this element in his work to make it relevant and vital to today’s audience. “Rap is part of our society,” he explains. “It’s an indigenous part of our contemporary cities. It’s an urban art form. Whether we like it or not, it reflects contemporary life in an urban city.”
“The lyrics are about a transitional society, a society that is going from the word to the image. It’s about a society that used to believe in depth and books and reading and jazz and abstract thought to a simplistic, superficial society that only cares about the quick Starbucks or Twitter fix. It’s all lightness of being today, it’s not like the ‘60s where there was a lot of exploration in jazz, in classical music, in writing. Now people want their jazz nice and safe, they want to know what they’re going to hear before they walk into a concert. We don’t celebrate anticipation anymore. People don’t want to put the time in. So this symphony is about the collapse of that whole ethos.”

Dynamic Range Meter

foobar2000 1.3.8 / Dynamic Range Meter 1.1.1log date: 2015-08-27 23:49:51
--------------------------------------------------------------------------------Analyzed: David Chesky / Rap Symphony--------------------------------------------------------------------------------
DR Peak RMS Duration Track--------------------------------------------------------------------------------DR14 -0.51 dB -19.39 dB 19:16 01-Rap SymphonyDR14 -0.51 dB -21.38 dB 9:10 02-Street BeatsDR13 -0.66 dB -18.77 dB 6:45 03-Central Park Dances: Dance No.1DR13 -1.00 dB -19.29 dB 4:56 04-Central Park Dances: Dance No.2DR13 -0.51 dB -19.35 dB 4:56 05-Central Park Dances: Dance No.3--------------------------------------------------------------------------------
Number of tracks: 5Official DR value: DR14
Samplerate: 48000 HzChannels: 2Bits per sample: 24Bitrate: 1358 kbpsCodec: FLAC================================================================================
Torrent: Registered [ 2015-11-19 22:39 ] · A66C3DBFF8638828DACF82F85FE0046B4073DD14

Download .torrent


18 KB

Status: checked
Completed: 1 times
Size: 437 MB

Quick Reply


Heads necessary to send messages to enable JavaScript
Display posts:    

Current time is: 27-Oct 07:57

All times are UTC + 3

You can post new topics in this forum
You can reply to topics in this forum
You cannot edit your posts in this forum
You cannot delete your posts in this forum
You cannot vote in polls in this forum
You cannot attach files in this forum
You can download files in this forum