(Classical / Middleoftheroad / Orchestral Music / Popular) Die 12 Cellisten der Berliner Philharmoniker \ The 12 Cellists Of The Berlin Philharmonic - As Time Goes By - 2004, FLAC (tracks+.cue), lossless


 

[Цитировать]

Die 12 Cellisten der Berliner Philharmoniker \ The 12 Cellists Of The Berlin Philharmonic - As Time Goes By
Жанр: Classical / Middleoftheroad / Orchestral Music / Popular
Год выпуска диска: 2004
Производитель диска: Голландия
Аудио кодек: FLAC
Тип рипа: tracks+.cue
Битрейт аудио: lossless
Продолжительность: 1:10:12
Источник Рипа: Рип мой
Трэклист:
1. Diamonds are a Girl's Best Friend (Gentleman Prefers Blondes)
2. Main Theme (Basic Instinct)
3. The Man with the Harmonica (Once upon a time in the West)
4. La Strada
5. Tea for Two (No, No, Nanette)
6. Lullaby Of Birdland (The Fabulous Baker Boys)
7. As Time Goes By (Casablanca)
8. Family Portrait (Harry Potter And The Philosopher's Stone)
9. Poverty/Deborah's Theme (Once Upon A Time In America)
10. Catch Me If You Can
11. Main Theme (Titanic)
12. I Could Have Done More (Schindler's List)
13. Windmills Of Your Mind (The Thomas Crown Affair)
14. The Bare Necessities (The Jungle Book)
15. Love Me Tender
16. Love Scene (Vertigo)

Цитата

Идея создания ансамбля из 12 виолончелей, на первый взгляд, должна была родиться у предприимчивого специалиста по PR-технологиям образца 2000 года. Однако в действительности все выглядит по-другому: с истинно немецкой гордостью 12 виолончелистов Берлинского филармонического оркестра объясняют, что ведут историю своего ансамбля с 1972 года и в коллективе за это время сменилось несколько поколений музыкантов.
Первоначальным импульсом для того, чтобы обособить группу виолончелей в симфоническом оркестре, была мечта легендарного виолончелиста Пабло Казальса создать оркестр виолончелей. Мечта, впрочем, даже коллегам Казальса казалась утопией: с таким же успехом можно грезить об оркестре тромбонов или альтов. Однако в 1920 году, зная о превосходном составе виолончельной группы Берлинской филармонии, известный педагог и исполнитель Юлиус Кленгель написал небольшую пьесу «Гимн» для 12 виолончелей и презентовал ее в качестве подарка на 65-летие своему другу, дирижеру Артуру Никишу. Полвека спустя виолончелисты оркестра, находясь, как любят выражаться профессора консерваторий, «в беспрестанном творческом поиске», начали давать камерные концерты в Берлине, для которых собственноручно или с помощью разных композиторов делали аранжировки популярных произведений. Но аппетит, как известно, приходит во время еды — постепенно современные авторы начали создавать для ансамбля новые композиции. Количество поклонников увеличивалось с каждым концертом, и развлечение «в своем кругу» превратилось для берлинских виолончелистов в потребность, а вскоре — в успешный бизнес.
Конечно, с точки зрения высоколобых экспертов от музыки «12 виолончелистов» в профессиональных кругах проходят исключительно по ведомству «легкой музыки», или — в английском языке есть более точное выражение — easy listening. Но отличие бравой дюжины виолончелистов от других музыкантов, трудящихся на этой сомнительной ниве, состоит в том, что их основное время занимает работа в одном из лучших симфонических оркестров мира. Соответственно, кому как не им можно поразвлечься на досуге. А развлекаться они умеют: помимо искрометных программ, включающих наряду с классическими шлягерами мелодии из бродвейских мюзиклов, обработки рок-композиций и джазовых стандартов, они тешат себя и других имиджем «больших детей»: артистов мирового уровня, воспринимающих славу с большой долей юмора.
Себя самих они отождествляют с диснеевскими гномами, раздав друг другу клички: Философ, Комик, Чувствительный, Волшебник, Бизнесмен, Менеджер, Швейцарец, Берлинец и т. д. Пишут на официальном сайте «12 виолончелистов» о своих странствиях путевые заметки, охотно посвящая читателя во все неурядицы кочевой жизни, с задержками самолетов, пропавшим багажом, исчезнувшими нотами, тупыми промоутерами и т. д. Если присмотреться внимательнее, то вся эта непосредственность, конечно же, тоже хорошо продумана и просчитана на годы вперед. Но покуда претензий к качеству игры и ансамблевой слаженности нет — весь мир наслаждается бархатным звуком 12 роскошных инструментов.
www.timeout.ru

Отчет EAC

Exact Audio Copy V0.99 prebeta 5 from 4. May 2009
EAC extraction logfile from 23. February 2010, 23:42
Die 12 Cellisten der Berliner Philharmoniker / As Time Goes By
Used drive : PHILIPS DVDR1648P1 Adapter: 1 ID: 1
Read mode : Secure
Utilize accurate stream : Yes
Defeat audio cache : Yes
Make use of C2 pointers : No
Read offset correction : 618
Overread into Lead-In and Lead-Out : No
Fill up missing offset samples with silence : Yes
Delete leading and trailing silent blocks : No
Null samples used in CRC calculations : Yes
Used interface : Native Win32 interface for Win NT & 2000
Gap handling : Appended to previous track
Used output format : User Defined Encoder
Selected bitrate : 128 kBit/s
Quality : High
Add ID3 tag : No
Command line compressor : C:\Program Files\Exact Audio Copy\Flac\flac.exe
Additional command line options : -8 -V -T "ARTIST=%a" -T "TITLE=%t" -T "ALBUM=%g" -T "DATE=%y" -T "TRACKNUMBER=%n" -T "GENRE=%m" -T "COMMENT=EAC FLAC -8" %s
TOC of the extracted CD
Track | Start | Length | Start sector | End sector
---------------------------------------------------------
1 | 0:00.00 | 4:32.49 | 0 | 20448
2 | 4:32.49 | 2:15.31 | 20449 | 30604
3 | 6:48.05 | 4:03.39 | 30605 | 48868
4 | 10:51.44 | 5:17.37 | 48869 | 72680
5 | 16:09.06 | 3:12.62 | 72681 | 87142
6 | 19:21.68 | 4:35.62 | 87143 | 107829
7 | 23:57.55 | 4:20.18 | 107830 | 127347
8 | 28:17.73 | 3:41.28 | 127348 | 143950
9 | 31:59.26 | 7:11.29 | 143951 | 176304
10 | 39:10.55 | 2:53.64 | 176305 | 189343
11 | 42:04.44 | 4:47.05 | 189344 | 210873
12 | 46:51.49 | 6:11.70 | 210874 | 238768
13 | 53:03.44 | 3:03.51 | 238769 | 252544
14 | 56:07.20 | 3:24.00 | 252545 | 267844
15 | 59:31.20 | 4:23.46 | 267845 | 287615
16 | 63:54.66 | 6:17.60 | 287616 | 315950
Track 1
Filename D:\Berlin philarmonic cellisten\New Folder. Die 12 Cellisten der Berliner Philharmoniker – Diamonds are a Girl's Best Friend (Gentleman Prefers Blondes).wav
Pre-gap length 0:00:02.00
Peak level 92.6 %
Track quality 100.0 %
Test CRC 00646862
Copy CRC 00646862
Copy OK
Track 2
Filename D:\Berlin philarmonic cellisten\New Folder. Die 12 Cellisten der Berliner Philharmoniker – Main Theme (Basic Instinct).wav
Pre-gap length 0:00:02.00
Peak level 25.1 %
Track quality 100.0 %
Test CRC 1E771157
Copy CRC 1E771157
Copy OK
Track 3
Filename D:\Berlin philarmonic cellisten\New Folder. Die 12 Cellisten der Berliner Philharmoniker – The Man with the Harmonica (Once upon a time in the West).wav
Pre-gap length 0:00:02.00
Peak level 75.2 %
Track quality 100.0 %
Test CRC B4E4119A
Copy CRC B4E4119A
Copy OK
Track 4
Filename D:\Berlin philarmonic cellisten\New Folder. Die 12 Cellisten der Berliner Philharmoniker – La Strada.wav
Pre-gap length 0:00:02.00
Peak level 54.8 %
Track quality 100.0 %
Test CRC 6816706D
Copy CRC 6816706D
Copy OK
Track 5
Filename D:\Berlin philarmonic cellisten\New Folder. Die 12 Cellisten der Berliner Philharmoniker – Tea for Two (No, No, Nanette).wav
Pre-gap length 0:00:02.00
Peak level 46.7 %
Track quality 100.0 %
Test CRC 48A2D33A
Copy CRC 48A2D33A
Copy OK
Track 6
Filename D:\Berlin philarmonic cellisten\New Folder. Die 12 Cellisten der Berliner Philharmoniker – Lullaby of Birdland (The Fabulous Baker Boys).wav
Pre-gap length 0:00:02.00
Peak level 49.8 %
Track quality 100.0 %
Test CRC 88756434
Copy CRC 88756434
Copy OK
Track 7
Filename D:\Berlin philarmonic cellisten\New Folder. Die 12 Cellisten der Berliner Philharmoniker – As Time Goes By (Casablanca).wav
Pre-gap length 0:00:02.00
Peak level 59.1 %
Track quality 100.0 %
Test CRC 27638B41
Copy CRC 27638B41
Copy OK
Track 8
Filename D:\Berlin philarmonic cellisten\New Folder. Die 12 Cellisten der Berliner Philharmoniker – Family Portait (Harry Potter and the Philosopher's Stone).wav
Pre-gap length 0:00:02.00
Peak level 39.4 %
Track quality 100.0 %
Test CRC A87D62EB
Copy CRC A87D62EB
Copy OK
Track 9
Filename D:\Berlin philarmonic cellisten\New Folder. Die 12 Cellisten der Berliner Philharmoniker – Poverty - Deborah's Theme (C'era una volta in America).wav
Pre-gap length 0:00:02.00
Peak level 73.2 %
Track quality 100.0 %
Test CRC 9F77F938
Copy CRC 9F77F938
Copy OK
Track 10
Filename D:\Berlin philarmonic cellisten\New Folder. Die 12 Cellisten der Berliner Philharmoniker – Catch me if you can (Arr_te-toi si tu peux).wav
Pre-gap length 0:00:02.00
Peak level 34.7 %
Track quality 100.0 %
Test CRC 994A42F0
Copy CRC 994A42F0
Copy OK
Track 11
Filename D:\Berlin philarmonic cellisten\New Folder. Die 12 Cellisten der Berliner Philharmoniker – Main Theme (Titanic).wav
Pre-gap length 0:00:02.00
Peak level 54.3 %
Track quality 100.0 %
Test CRC DD2F3618
Copy CRC DD2F3618
Copy OK
Track 12
Filename D:\Berlin philarmonic cellisten\New Folder. Die 12 Cellisten der Berliner Philharmoniker – I could have done more (Shindler's List).wav
Pre-gap length 0:00:02.00
Peak level 56.7 %
Track quality 100.0 %
Test CRC 2839E907
Copy CRC 2839E907
Copy OK
Track 13
Filename D:\Berlin philarmonic cellisten\New Folder. Die 12 Cellisten der Berliner Philharmoniker – The Windmills of your Mind (The Thomas Crown Affair).wav
Pre-gap length 0:00:02.00
Peak level 49.1 %
Track quality 100.0 %
Test CRC 75EBFD07
Copy CRC 75EBFD07
Copy OK
Track 14
Filename D:\Berlin philarmonic cellisten\New Folder. Die 12 Cellisten der Berliner Philharmoniker – The Bare Necessities (The Jungle Book).wav
Pre-gap length 0:00:02.00
Peak level 62.6 %
Track quality 100.0 %
Test CRC B8911B84
Copy CRC B8911B84
Copy OK
Track 15
Filename D:\Berlin philarmonic cellisten\New Folder. Die 12 Cellisten der Berliner Philharmoniker – Love me Tender (Love me Tender).wav
Pre-gap length 0:00:02.00
Peak level 36.7 %
Track quality 100.0 %
Test CRC C48EF28F
Copy CRC C48EF28F
Copy OK
Track 16
Filename D:\Berlin philarmonic cellisten\New Folder. Die 12 Cellisten der Berliner Philharmoniker – Love Scene (Vertigo).wav
Pre-gap length 0:00:02.00
Peak level 58.6 %
Track quality 100.0 %
Test CRC D2E39D42
Copy CRC D2E39D42
Copy OK
No errors occurred
End of status report

CUE

REM GENRE Classical
REM DATE 2004
REM DISCID EA107410
REM COMMENT "ExactAudioCopy v0.99pb5"
PERFORMER "Die 12 Cellisten der Berliner Philharmoniker"
TITLE "As Time Goes By"
FILE "01. Die 12 Cellisten der Berliner Philharmoniker – Diamonds are a Girl's Best Friend (Gentleman Prefers Blondes).wav" WAVE
TRACK 01 AUDIO
TITLE "Diamonds are a Girl's Best Friend (Gentleman Prefers Blondes)"
PERFORMER "Die 12 Cellisten der Berliner Philharmoniker"
INDEX 01 00:00:00
TRACK 02 AUDIO
TITLE "Main Theme (Basic Instinct)"
PERFORMER "Die 12 Cellisten der Berliner Philharmoniker"
FLAGS DCP
INDEX 00 04:30:49
FILE "02. Die 12 Cellisten der Berliner Philharmoniker – Main Theme (Basic Instinct).wav" WAVE
INDEX 01 00:00:00
TRACK 03 AUDIO
TITLE "The Man with the Harmonica (Once upon a time in the West)"
PERFORMER "Die 12 Cellisten der Berliner Philharmoniker"
FLAGS DCP
INDEX 00 02:13:31
FILE "03. Die 12 Cellisten der Berliner Philharmoniker – The Man with the Harmonica (Once upon a time in the West).wav" WAVE
INDEX 01 00:00:00
TRACK 04 AUDIO
TITLE "La Strada"
PERFORMER "Die 12 Cellisten der Berliner Philharmoniker"
FLAGS DCP
INDEX 00 04:01:39
FILE "04. Die 12 Cellisten der Berliner Philharmoniker – La Strada.wav" WAVE
INDEX 01 00:00:00
TRACK 05 AUDIO
TITLE "Tea for Two (No, No, Nanette)"
PERFORMER "Die 12 Cellisten der Berliner Philharmoniker"
FLAGS DCP
INDEX 00 05:15:37
FILE "05. Die 12 Cellisten der Berliner Philharmoniker – Tea for Two (No, No, Nanette).wav" WAVE
INDEX 01 00:00:00
TRACK 06 AUDIO
TITLE "Lullaby of Birdland (The Fabulous Baker Boys)"
PERFORMER "Die 12 Cellisten der Berliner Philharmoniker"
FLAGS DCP
INDEX 00 03:10:62
FILE "06. Die 12 Cellisten der Berliner Philharmoniker – Lullaby of Birdland (The Fabulous Baker Boys).wav" WAVE
INDEX 01 00:00:00
TRACK 07 AUDIO
TITLE "As Time Goes By (Casablanca)"
PERFORMER "Die 12 Cellisten der Berliner Philharmoniker"
FLAGS DCP
INDEX 00 04:33:62
FILE "07. Die 12 Cellisten der Berliner Philharmoniker – As Time Goes By (Casablanca).wav" WAVE
INDEX 01 00:00:00
TRACK 08 AUDIO
TITLE "Family Portait (Harry Potter and the Philosopher's Stone)"
PERFORMER "Die 12 Cellisten der Berliner Philharmoniker"
FLAGS DCP
INDEX 00 04:18:18
FILE "08. Die 12 Cellisten der Berliner Philharmoniker – Family Portait (Harry Potter and the Philosopher's Stone).wav" WAVE
INDEX 01 00:00:00
TRACK 09 AUDIO
TITLE "Poverty - Deborah's Theme (C'era una volta in America)"
PERFORMER "Die 12 Cellisten der Berliner Philharmoniker"
FLAGS DCP
INDEX 00 03:39:28
FILE "09. Die 12 Cellisten der Berliner Philharmoniker – Poverty - Deborah's Theme (C'era una volta in America).wav" WAVE
INDEX 01 00:00:00
TRACK 10 AUDIO
TITLE "Catch me if you can (Arr_te-toi si tu peux)"
PERFORMER "Die 12 Cellisten der Berliner Philharmoniker"
FLAGS DCP
INDEX 00 07:09:29
FILE "10. Die 12 Cellisten der Berliner Philharmoniker – Catch me if you can (Arr_te-toi si tu peux).wav" WAVE
INDEX 01 00:00:00
TRACK 11 AUDIO
TITLE "Main Theme (Titanic)"
PERFORMER "Die 12 Cellisten der Berliner Philharmoniker"
FLAGS DCP
INDEX 00 02:51:64
FILE "11. Die 12 Cellisten der Berliner Philharmoniker – Main Theme (Titanic).wav" WAVE
INDEX 01 00:00:00
TRACK 12 AUDIO
TITLE "I could have done more (Shindler's List)"
PERFORMER "Die 12 Cellisten der Berliner Philharmoniker"
FLAGS DCP
INDEX 00 04:45:05
FILE "12. Die 12 Cellisten der Berliner Philharmoniker – I could have done more (Shindler's List).wav" WAVE
INDEX 01 00:00:00
TRACK 13 AUDIO
TITLE "The Windmills of your Mind (The Thomas Crown Affair)"
PERFORMER "Die 12 Cellisten der Berliner Philharmoniker"
FLAGS DCP
INDEX 00 06:09:70
FILE "13. Die 12 Cellisten der Berliner Philharmoniker – The Windmills of your Mind (The Thomas Crown Affair).wav" WAVE
INDEX 01 00:00:00
TRACK 14 AUDIO
TITLE "The Bare Necessities (The Jungle Book)"
PERFORMER "Die 12 Cellisten der Berliner Philharmoniker"
FLAGS DCP
INDEX 00 03:01:51
FILE "14. Die 12 Cellisten der Berliner Philharmoniker – The Bare Necessities (The Jungle Book).wav" WAVE
INDEX 01 00:00:00
TRACK 15 AUDIO
TITLE "Love me Tender (Love me Tender)"
PERFORMER "Die 12 Cellisten der Berliner Philharmoniker"
FLAGS DCP
INDEX 00 03:22:00
FILE "15. Die 12 Cellisten der Berliner Philharmoniker – Love me Tender (Love me Tender).wav" WAVE
INDEX 01 00:00:00
TRACK 16 AUDIO
TITLE "Love Scene (Vertigo)"
PERFORMER "Die 12 Cellisten der Berliner Philharmoniker"
FLAGS DCP
INDEX 00 04:21:46
FILE "16. Die 12 Cellisten der Berliner Philharmoniker – Love Scene (Vertigo).wav" WAVE
INDEX 01 00:00:00



Показать сообщения:    

Текущее время: 08-Дек 23:08

Часовой пояс: UTC + 3


Вы не можете начинать темы
Вы не можете отвечать на сообщения
Вы не можете редактировать свои сообщения
Вы не можете удалять свои сообщения
Вы не можете голосовать в опросах
Вы не можете прикреплять файлы к сообщениям
Вы не можете скачивать файлы