(Modern Classical, Experimental) VA - Variations of Chopin - 2013, FLAC (tracks+.cue), lossless


 

[Цитировать]

VA - Variations of Chopin
Жанр: Modern Classical, Experimental
Год издания диска: 2013
Издатель (лейбл): Too Many Fireworks
Номер по каталогу: 2mf013
Страна: Великобритания
Аудиокодек: FLAC
Тип рипа: tracks+.cue
Битрейт аудио: lossless
Продолжительность: 50:21
Источник (релизер): maledine (what)
Наличие сканов в содержимом раздачи: нет
Треклист:
01. Neil Milton - Prelude in A major, Op.28 No.7 (0:50)
02. Black Antlers - Nocturne in D flat major, Op.27 No.2 (6:57)
03. Miaoux Miaoux - Nocturne in F minor, Op.55 No.1 (3:59)
04. Good Weather for an Airstrike & Inachus - Piano Concerto No.1 in E minor, Op.11: Romance (8:17)
05. deSelby - Nocturne in E flat major, Op.9 No.2 (3:47)
06. Antonymes - Etude in E major, Op.10 No.3 'Tristesse' (8:29)
07. Ensemble Thing - Waltz in D flat major, Op.64, No.1 (2:03)
08. Caught in the Wake Forever - Nocturne in F sharp minor, Op.48 No.2 (2:27)
09. Now Wakes the Sea - Fantaisie-Impromptu in C sharp minor, Op.Posth.66 No.4 (6:51)
10. Letdown Dept. - Nocturne in F minor, Op.55 No.1 (3:57)
11. Clem Leek - Prelude in A major, Op.28 No.7 (2:44)

Лог создания рипа

Exact Audio Copy V1.0 beta 3 from 29. August 2011
EAC extraction logfile from 4. August 2013, 10:45
Various Artists / Variations Of Chopin
Used drive : PLEXTOR CD-R PX-W2410A Adapter: 0 ID: 0
Read mode : SecureUtilize accurate stream : YesDefeat audio cache : YesMake use of C2 pointers : No
Read offset correction : 98Overread into Lead-In and Lead-Out : NoFill up missing offset samples with silence : YesDelete leading and trailing silent blocks : NoNull samples used in CRC calculations : YesUsed interface : Native Win32 interface for Win NT & 2000Gap handling : Appended to previous track
Used output format : User Defined EncoderSelected bitrate : 1024 kBit/sQuality : HighAdd ID3 tag : NoCommand line compressor : C:\Program Files (x86)\Exact Audio Copy\FLAC\FLAC.EXEAdditional command line options : -8 -V -T "ARTIST=%artist%" -T "TITLE=%title%" -T "ALBUM=%albumtitle%" -T "DATE=%year%" -T "TRACKNUMBER=%tracknr%" -T "GENRE=%genre%" -T "PERFORMER=%albuminterpret%" -T "COMPOSER=%composer%" %haslyrics%--tag-from-file=LYRICS="%lyricsfile%"%haslyrics% -T "ALBUMARTIST=%albumartist%" -T "DISCNUMBER=%cdnumber%" -T "TOTALDISCS=%totalcds%" -T "TOTALTRACKS=%numtracks%" -T "COMMENT=%comment%" %source% -o %dest%
TOC of the extracted CD
Track | Start | Length | Start sector | End sector --------------------------------------------------------- 1 | 0:00.00 | 0:49.74 | 0 | 3748 2 | 0:49.74 | 6:56.74 | 3749 | 35022 3 | 7:46.73 | 3:59.37 | 35023 | 52984 4 | 11:46.35 | 8:17.37 | 52985 | 90296 5 | 20:03.72 | 3:47.37 | 90297 | 107358 6 | 23:51.34 | 8:29.37 | 107359 | 145570 7 | 32:20.71 | 2:02.74 | 145571 | 154794 8 | 34:23.70 | 2:27.23 | 154795 | 165842 9 | 36:51.18 | 6:50.74 | 165843 | 196666 10 | 43:42.17 | 3:57.37 | 196667 | 214478 11 | 47:39.54 | 2:43.74 | 214479 | 226777
Track 1
Filename E:\rips - Neil Milton - Preludes Op. 28- No. 7 In A Major.wav
Pre-gap length 0:00:02.00
Peak level 69.7 % Extraction speed 1.7 X Track quality 100.0 % Test CRC 71772466 Copy CRC 71772466 Track not present in AccurateRip database Copy OK
Track 2
Filename E:\rips - Black Antlers - Nocturnes Op. 27- No. 2 In D Flat Major.wav
Peak level 100.0 % Extraction speed 5.2 X Track quality 99.9 % Test CRC 257BC773 Copy CRC 257BC773 Track not present in AccurateRip database Copy OK
Track 3
Filename E:\rips - Miaoux Miaoux - Nocturnes Op. 55- No. 1 In F Minor.wav
Peak level 67.1 % Extraction speed 10.0 X Track quality 100.0 % Test CRC 99E11D87 Copy CRC 99E11D87 Track not present in AccurateRip database Copy OK
Track 4
Filename E:\rips - Good Weather For An Airstrike & Inachus - Concerto No. 1 In E Minor Op. 11- Romance.wav
Peak level 100.0 % Extraction speed 11.6 X Track quality 100.0 % Test CRC AA75E7F1 Copy CRC AA75E7F1 Track not present in AccurateRip database Copy OK
Track 5
Filename E:\rips - deSelby - Nocturnes Op. 9- No. 2 In E Flat Major.wav
Peak level 100.0 % Extraction speed 12.0 X Track quality 100.0 % Test CRC BB7EF46C Copy CRC BB7EF46C Track not present in AccurateRip database Copy OK
Track 6
Filename E:\rips - Antonymes - Tristesse (12 Études Op. 10- No. 3 In E Major).wav
Peak level 100.0 % Extraction speed 13.3 X Track quality 100.0 % Test CRC 2727ACD7 Copy CRC 2727ACD7 Track not present in AccurateRip database Copy OK
Track 7
Filename E:\rips - Ensemble Thing - Waltz In D Flat Major, Op. 64, No. 1.wav
Peak level 81.1 % Extraction speed 12.2 X Track quality 100.0 % Test CRC 370E58CF Copy CRC 370E58CF Track not present in AccurateRip database Copy OK
Track 8
Filename E:\rips - Caught In The Wake Forever - Nocturnes Op. 48- No. 2 In F Sharp Minor.wav
Peak level 96.1 % Extraction speed 12.3 X Track quality 100.0 % Test CRC EAE03E24 Copy CRC EAE03E24 Track not present in AccurateRip database Copy OK
Track 9
Filename E:\rips - Now Wakes The Sea - Impromptus No. 4 Op. Posth. 66.wav
Peak level 73.7 % Extraction speed 12.3 X Track quality 99.9 % Test CRC 99639403 Copy CRC 99639403 Track not present in AccurateRip database Copy OK
Track 10
Filename E:\rips - Letdown Dept. - Nocturnes Op. 55- No.1 In F Minor.wav
Peak level 100.0 % Extraction speed 13.5 X Track quality 100.0 % Test CRC E78C97BD Copy CRC E78C97BD Track not present in AccurateRip database Copy OK
Track 11
Filename E:\rips - Neil Milton - Preludes Op. 28- No.7 In A Major.wav
Peak level 100.0 % Extraction speed 8.8 X Track quality 99.9 % Test CRC 20649984 Copy CRC 20649984 Track not present in AccurateRip database Copy OK
None of the tracks are present in the AccurateRip database
No errors occurred
End of status report
---- CUETools DB Plugin V2.1.3
[CTDB TOCID: FEo5e4T8wICo1m_RUsGzLehH44U-] disk not present in database, Submit result: FEo5e4T8wICo1m_RUsGzLehH44U- has been uploaded
==== Log checksum D8FE3B57A8886356F2E630E82C027A4012E75B3A75BA21AE8FA2A94B2860342E ====

Содержание индексной карты (.CUE)

REM GENRE ClassicalREM DATE 2013REM DISCID 800BCF0BREM COMMENT "ExactAudioCopy v1.0b3"PERFORMER "Various"TITLE "Variations of Chopin"FILE "01 - Neil Milton - Prelude in A major, Op.28 No.7.wav" WAVE TRACK 01 AUDIO TITLE "Prelude in A major, Op.28 No.7" PERFORMER "Neil Milton" INDEX 01 00:00:00FILE "02 - Black Antlers - Nocturne in D flat major, Op.27 No.2.wav" WAVE TRACK 02 AUDIO TITLE "Nocturne in D flat major, Op.27 No.2" PERFORMER "Black Antlers" INDEX 01 00:00:00FILE "03 - Miaoux Miaoux - Nocturne in F minor, Op.55 No.1.wav" WAVE TRACK 03 AUDIO TITLE "Nocturne in F minor, Op.55 No.1" PERFORMER "Miaoux Miaoux" INDEX 01 00:00:00FILE "04 - Good Weather for an Airstrike & Inachus - Piano Concerto No.1 in E minor, Op.11- Romance.wav" WAVE TRACK 04 AUDIO TITLE "Piano Concerto No.1 in E minor, Op.11: Romance" PERFORMER "Good Weather for an Airstrike & Inachus" INDEX 01 00:00:00FILE "05 - deSelby - Nocturne in E flat major, Op.9 No.2.wav" WAVE TRACK 05 AUDIO TITLE "Nocturne in E flat major, Op.9 No.2" PERFORMER "deSelby" INDEX 01 00:00:00FILE "06 - Antonymes - Etude in E major, Op.10 No.3 'Tristesse'.wav" WAVE TRACK 06 AUDIO TITLE "Etude in E major, Op.10 No.3 'Tristesse'" PERFORMER "Antonymes" INDEX 01 00:00:00FILE "07 - Ensemble Thing - Waltz in D flat major, Op.64, No.1" WAVE TRACK 07 AUDIO TITLE "Waltz in D flat major, Op.64, No.1" PERFORMER "Ensemble Thing" INDEX 01 00:00:00FILE "08 - Caught in the Wake Forever - Nocturne in F sharp minor, Op.48 No.2.wav" WAVE TRACK 08 AUDIO TITLE "Nocturne in F sharp minor, Op.48 No.2" PERFORMER "Caught in the Wake Forever" INDEX 01 00:00:00FILE "09 - Now Wakes the Sea - Fantaisie-Impromptu in C sharp minor, Op.Posth.66 No.4.wav" WAVE TRACK 09 AUDIO TITLE "Fantaisie-Impromptu in C sharp minor, Op.Posth.66 No.4" PERFORMER "Now Wakes the Sea" INDEX 01 00:00:00FILE "10 - Letdown Dept. - Nocturne in F minor, Op.55 No.1.wav" WAVE TRACK 10 AUDIO TITLE "Nocturne in F minor, Op.55 No.1" PERFORMER "Letdown Dept." INDEX 01 00:00:00FILE "11 - Clem Leek - Prelude in A major, Op.28 No.7.wav" WAVE TRACK 11 AUDIO TITLE "Prelude in A major, Op.28 No.7" PERFORMER "Clem Leek" INDEX 01 00:00:00

Отчет CUETools

[CUETools log; Date: 28.12.2013 23:03:12; Version: 2.1.4][CTDB TOCID: FEo5e4T8wICo1m_RUsGzLehH44U-] found.Track | CTDB Status 1 | (1/1) Accurately ripped 2 | (1/1) Accurately ripped 3 | (1/1) Accurately ripped 4 | (1/1) Accurately ripped 5 | (1/1) Accurately ripped 6 | (1/1) Accurately ripped 7 | (1/1) Accurately ripped 8 | (1/1) Accurately ripped 9 | (1/1) Accurately ripped 10 | (1/1) Accurately ripped 11 | (1/1) Accurately ripped[AccurateRip ID: 0015438a-00ba6c16-800bcf0b] found.Track [ CRC | V2 ] Status 01 [6f54cdd8|d7f1b149] (0+1/1) Accurately ripped 02 [cb5a5bf0|d52b68a9] (0+1/1) Accurately ripped 03 [d5b532f3|02d8fdc0] (0+1/1) Accurately ripped 04 [4bc787ef|3d950680] (0+1/1) Accurately ripped 05 [e7af2b8a|97276d70] (0+1/1) Accurately ripped 06 [e94d91ec|b7e701fe] (0+1/1) Accurately ripped 07 [e5a78292|29e81f0d] (0+1/1) Accurately ripped 08 [db92c933|530579a5] (0+1/1) Accurately ripped 09 [2dddb6d9|f4e482ce] (0+1/1) Accurately ripped 10 [9e75e8df|b1c910c5] (0+1/1) Accurately ripped 11 [5e37975a|3dbdbe0e] (0+1/1) Accurately ripped
Track Peak [ CRC32 ] [W/O NULL] [ LOG ] -- 100,0 [DC5B7C3D] [8CF6D0C7] 01 69,7 [71772466] [11F27F96] CRC32 02 100,0 [257BC773] [3610DDC0] CRC32 03 67,1 [99E11D87] [8FCCEDF0] CRC32 04 100,0 [AA75E7F1] [8A7EF356] CRC32 05 100,0 [BB7EF46C] [579CA096] CRC32 06 100,0 [2727ACD7] [1891A3EA] CRC32 07 81,1 [370E58CF] [21C19A98] CRC32 08 96,1 [EAE03E24] [E8103A9C] CRC32 09 73,7 [99639403] [23048243] CRC32 10 100,0 [E78C97BD] [F7284BA5] CRC32 11 100,0 [20649984] [C999DF62] CRC32

Об альбоме (сборнике)

Variations of Chopin is a compilation featuring modern interpretations of works by my favorite classical composer, Fryderyk Chopin. Released by the small Scottish (by way of Poland) indie label Too Many Fireworks, Variations of Chopin puts an ambient and electro-pop spin on Chopin’s classical melodies.
The album is bookended by interpretations of “Prelude Op. 28 No. 7 in A Major.” Neil Milton’s straightforward but nonetheless pretty piano take is a very brief 48-second opener. Thankfully, Clem Leek’s magnificent, mindblowingly lovely finale of the same piece has an almost three minute life. But we’ll get to that later.
It’s during Black Antlers’ somewhat eerie rendering of “Nocturne Op. 27 No. 2 in D Flat Major” that you slowly become aware that this is not your standard classical album. Though the work’s central melody is tightly woven into the cover, there are just enough electronic embellishments to give it some extra oomph.
Miaoux Miaoux then completely abandons the classical realm for a full-on electro-pop cover of “Nocturne Op. 55 No. 1 in F Minor.” You would never guess all those beats and blips were born from a Chopin arrangement.
deSelby gives a beautiful, somewhat Baroque acoustic guitar cover of “Nocturne Op. 9 No. 2 in E Flat Major.” Even if you don’t know the original Chopin composition, you may recognize the melody from the end of Muse’s “United States of Eurasia/Collateral Damage.“
Some of the other covers are a tad too experimental for my taste, though I still admire the concept.
And then we have that spectacular finale. Clem Leek’s rendition pf “Prelude Op. 28 No. 7 in A Major” swirls with ghostly vinyl scratches, distant sparse piano, harmonica and creaky violins. It’s absolutely fantastic.



Показать сообщения:    

Текущее время: 03-Дек 05:28

Часовой пояс: UTC + 3


Вы не можете начинать темы
Вы не можете отвечать на сообщения
Вы не можете редактировать свои сообщения
Вы не можете удалять свои сообщения
Вы не можете голосовать в опросах
Вы не можете прикреплять файлы к сообщениям
Вы не можете скачивать файлы