Ингмар Бергман: О жизни и работе (ТВ) / Ingmar Bergman On Life And Work / Ingmar Bergman: Om liv och arbete (Йорн Доннер / Jörn Donner) [1998, Швеция, Документальный, DVDRip] VO (Александр Рахленко (ГТРК "Культура")) + Sub Eng + Origin


Статистика раздачи [Обновить пиров]
Размер:  820 MB   |    Зарегистрирован:  1 год   |    Скачан:  0 раз

Полного источника не было: Никогда

Личеров:  3  [  0 KB/s  ]   Подробная статистика пиров
 
   
 
 
 

[Цитировать]

Ингмар Бергман: О жизни и работе (ТВ) / Ingmar Bergman On Life And Work / Ingmar Bergman: Om liv och arbete
Страна: Швеция
Жанр: Документальный
Год выпуска: 1998
Продолжительность: 01:30:40
Перевод: Студийный (одноголосый закадровый) Александр Рахленко (ГТРК "Культура")
Cубтитры: английские
Оригинальная аудиодорожка: шведский
Режиссер: Йорн Доннер / Jörn Donner
В ролях: Ингмар Бергман, Йорн Доннер
Описание: Интересное интервью Йорна Доннера у Бергмана, который рассказывает о своей жизни и работе.
Доп. информация: Огромное спасибо rulle1 за организацию "склейки" видео и звука: сделано идеально, особенно если учитывать, что по Культуре фильм был разбит на 3 части с титрами, заставками и комментариями.
ИМХО: Одно из самых стоящих интервью с Бергманом с переводом Александра Рахленко (ГТРК "Культура"), очень интересный и достойный внимания материал. !РАРИТЕТ! С удовольствием делюсь с "бергманофилами".
Сэмпл: http://sendfile.su/1175306
Качество видео: DVDRip
Формат видео: MKV
Видео: XviD, 640х480 (4:3), 29,970 кадров/сек, 920 Кбит/с,
Аудио: AC-3, 192 Кбит/сек, 48,0 КГц, 16 бит, 2 канала (Russian)
Аудио 2: MP3, 128 Кбит/сек, 48,0 КГц, 16 бит, 2 канала (Svenska)

MediaInfo

Общее
Уникальный идентификатор : 247471118669005870235769563773369307038 (0xBA2D342B0753474DA5DE1127D93BCF9E)
Полное имя : G:\Ingmar.Bergman.On.Life.And.Work.mkv
Формат : Matroska
Версия формата : Version 4 / Version 2
Размер файла : 820 Мбайт
Продолжительность : 1 ч. 30 м.
Общий поток : 1265 Кбит/сек
Дата кодирования : UTC 2015-10-17 14:49:10
Программа кодирования : mkvmerge v8.4.0 ('A better way to fly') 32bit
Библиотека кодирования : libebml v1.3.1 + libmatroska v1.4.2
DURATION : 01:30:39.520000000
NUMBER_OF_FRAMES : 169985
NUMBER_OF_BYTES : 130548480
_STATISTICS_WRITING_APP : mkvmerge v8.4.0 ('A better way to fly') 32bit
_STATISTICS_WRITING_DATE_UTC : 2015-10-17 14:49:10
_STATISTICS_TAGS : BPS DURATION NUMBER_OF_FRAMES NUMBER_OF_BYTES
Видео
Идентификатор : 1
Формат : MPEG-4 Visual
Профиль формата : Advanced Simple@L5
Параметр BVOP формата : Да
Параметр QPel формата : Нет
Параметр GMC формата : Без точки перехода
Параметр матрицы формата : Выборочная
Идентификатор кодека : V_MS/VFW/FOURCC / XVID
Идентификатор кодека/Подсказка : XviD
Продолжительность : 1 ч. 30 м.
Битрейт : 920 Кбит/сек
Ширина : 640 пикселей
Высота : 480 пикселей
Соотношение сторон : 4:3
Режим частоты кадров : Постоянный
Частота кадров : 29,970 кадров/сек
Цветовое пространство : YUV
Субдискретизация насыщенности : 4:2:0
Битовая глубина : 8 бит
Тип развёртки : Прогрессивная
Метод сжатия : С потерями
Бит/(Пиксели*Кадры) : 0.100
Размер потока : 597 Мбайт (73%)
Библиотека кодирования : XviD 1.1.2 (UTC 2006-11-01)
Default : Да
Forced : Нет
Аудио #1
Идентификатор : 2
Формат : AC-3
Формат/Информация : Audio Coding 3
Расширение режима : CM (complete main)
Параметр Endianness формата : Big
Идентификатор кодека : A_AC3
Продолжительность : 1 ч. 30 м.
Вид битрейта : Постоянный
Битрейт : 192 Кбит/сек
Каналы : 2 канала
Расположение каналов : Front: L R
Частота : 48,0 КГц
Битовая глубина : 16 бит
Метод сжатия : С потерями
Размер потока : 125 Мбайт (15%)
Заголовок : Александр Рахленко
Язык : Russian
Default : Да
Forced : Нет
Аудио #2
Идентификатор : 3
Формат : MPEG Audio
Версия формата : Version 1
Профиль формата : Layer 3
Режим : Joint stereo
Расширение режима : MS Stereo
Идентификатор кодека : A_MPEG/L3
Идентификатор кодека/Подсказка : MP3
Продолжительность : 1 ч. 30 м.
Вид битрейта : Постоянный
Битрейт : 128 Кбит/сек
Каналы : 2 канала
Частота : 48,0 КГц
Метод сжатия : С потерями
Размер потока : 83,0 Мбайт (10%)
Библиотека кодирования : LAME3.97
Настройки программы : -m j -V 4 -q 2 -lowpass 17 -b 128
Язык : Swedish
Default : Нет
Forced : Нет
Текст
Идентификатор : 4
Формат : UTF-8
Идентификатор кодека : S_TEXT/UTF8
Идентификатор кодека/Информация : UTF-8 Plain Text
Язык : English
Default : Нет
Forced : Нет

Скриншот c названием фильма

Скриншоты

[teatrix.ru].t10801.torrent 
Торрент: Зарегистрирован [ 2015-11-20 00:05 ] · C5CA9F9D4875F7E21F3DF411C709C422121B6072

Скачать .torrent

Скачать

16 KB

Статус: проверено
Скачан: 0 раз
Размер: 820 MB
terms.php



Быстрый ответ

Имя:

      
Для отправки сообщений необходимо включить JavaScript
Показать сообщения:    

Текущее время: 05-Дек 13:34

Часовой пояс: UTC + 3


Вы можете начинать темы
Вы можете отвечать на сообщения
Вы не можете редактировать свои сообщения
Вы не можете удалять свои сообщения
Вы не можете голосовать в опросах
Вы не можете прикреплять файлы к сообщениям
Вы можете скачивать файлы