Сады Авеля / I Giardini di Abele (Серджио Дзаволи / Sergio Zavoli) [1968, Италия, документальный, короткометражный, VHSRip] + Sub Rus + Original Ita


Статистика раздачи [Обновить пиров]
Размер:  41 MB   |    Зарегистрирован:  1 год   |    Скачан:  0 раз

Полного источника не было: Никогда

Личеров:  3  [  0 KB/s  ]   Подробная статистика пиров
 
   
 
 
 

[Цитировать]

Сады Авеля / I Giardini di Abele
Страна: Италия
Жанр: документальный, короткометражный
Год выпуска: 1968
Продолжительность: 00:13:12
Перевод: Субтитры
Cубтитры: русские
Оригинальная аудиодорожка: итальянский
Режиссер: Серджио Дзаволи / Sergio Zavoli
В ролях: сотрудники, пациенты, посетители психиатрической больницы в Гориции, горожане.
Описание: В фильме сополагаются кадры хроники разного времени из психиатрической больницы в Гориции. До прихода Франко Базальи и его единомышленников к управлению, лечебница функционировала согласно типичным для того времени принципам: изолированное от внешнего мира существование пациентов, жесткая ролевая структура, применение большого количества медикаментов, система физических ограничений, электрошоковая терапия и т.д. Было необходимо устранить стереотипные наслоения, не имеющие отношения ни к пациенту, ни к его болезни, и пересмотреть сущность оказания психиатрической помощи. Исходя из этого, было проведено реформирование, приведшее к разрушению ролевой структуры и трансформации сумасшедшего дома в открытое городу терапевтическое сообщество, побуждающее пациентов к активному социальному действию. Рефлексивный субъект, соразмерный своему времени, от которого остается закадровый голос, размышляет обо всем происходящем. Также, в фильме присутствует интервью с Франко Базальей.
Фильм входит в цикл кинопоказов "Бред очарования гипнотического", подготовленного в рамках программы международного фестиваля активистского искусства «МедиаУдар», где кино станет поводом к дискуссии и поможет расширить горизонт восприятия нормативности и субъективности, психического расстройства, оказания психиатрической помощи и т.д. Выбранные для просмотра фильмы сгруппированы в соответствии с видом опыта: опыт художественной рефлексии («Я и мой брат»), опыт действия и взаимодействия пациентов, сотрудников больницы, горожан, городской администрации, художников, социальных работников («Сады Авеля», «Полёт», «Всё малое», «Мин Танака в клинике La Borde»). Действия разворачиваются на территориях стран так называемого антипсихиатрического пояса: Италия, Франция, США.
Специально для кинолектория фильмы были впервые переведены на русский язык и субтитрованы.
Организаторы: София Пигалова и Анастасия Дмитриевская.
Описание: Анастасия Дмитриевская
Перевод: Татьяна Занина
Доп. информация: Значительный вклад в подготовку фильма внесли: alex­kin ­ подготовка субтитров и тайминга, daft­digger ­ релиз, Ольга Власова в качестве важного теоретика (анти)психиатрического движения.
Сэмпл: http://multi-up.com/1075957
Качество видео: VHSRip
Формат видео: MP4
Видео: AVC at 331 kbps, 0.077 bit/pixel, 480x360 at 25,000 fps
Аудио: AAC at 96,0 kbps, 2 ch, 44,1 kHz

MediaInfo

Общее
Полное имя : FRANCO BASAGLIA - I GIARDINI DI ABELE.mp4
Формат : MPEG-4
Профиль формата : Base Media / Version 2
Идентификатор кодека : mp42
Размер файла : 40,6 Мбайт
Продолжительность : 13 м.
Режим общего битрейта : Переменный
Общий поток : 430 Кбит/сек
Дата кодирования : UTC 2014-09-09 14:59:35
Дата пометки : UTC 2014-09-09 14:59:35
gsst : 0
gstd : 792450
gssd : B4A7DDAE8HM1441124375265870
gshh : r8---sn-4g57kuer.googlevideo.com
Видео
Идентификатор : 1
Формат : AVC
Формат/Информация : Advanced Video Codec
Профиль формата : Baseline@L2.1
Параметр CABAC формата : Нет
Параметр ReFrames формата : 1 кадр
Параметр GOP формата : M=1, N=60
Идентификатор кодека : avc1
Идентификатор кодека/Информация : Advanced Video Coding
Продолжительность : 13 м.
Битрейт : 331 Кбит/сек
Максимальный битрейт : 903 Кбит/сек
Ширина : 480 пикселей
Высота : 360 пикселей
Соотношение сторон : 4:3
Режим частоты кадров : Постоянный
Частота кадров : 25,000 кадров/сек
Цветовое пространство : YUV
Субдискретизация насыщенности : 4:2:0
Битовая глубина : 8 бит
Тип развёртки : Прогрессивная
Бит/(Пиксели*Кадры) : 0.077
Размер потока : 31,3 Мбайт (77%)
Дата пометки : UTC 2014-09-09 14:59:39
Аудио
Идентификатор : 2
Формат : AAC
Формат/Информация : Advanced Audio Codec
Профиль формата : LC
Идентификатор кодека : 40
Продолжительность : 13 м.
Вид битрейта : Переменный
Битрейт : 96,0 Кбит/сек
Максимальный битрейт : 103 Кбит/сек
Каналы : 2 канала
Расположение каналов : Front: L R
Частота : 44,1 КГц
Метод сжатия : С потерями
Размер потока : 9,07 Мбайт (22%)
Заголовок : IsoMedia File Produced by Google, 5-11-2011
Дата кодирования : UTC 2014-09-09 14:59:38
Дата пометки : UTC 2014-09-09 14:59:39

Фрагмент субтитров

1
00:00:02,215 --> 00:00:04,415
Созвездие ‘68
2
00:00:05,011 --> 00:00:07,706
Сады Авеля
3
00:00:10,059 --> 00:00:11,102
Гориция.
4
00:00:11,489 --> 00:00:16,310
Я здесь ради местной психиатрической
больницы, сумасшедшего дома.
5
00:00:16,631 --> 00:00:19,656
Обычно душевнобольные
оказываются вынесенными на периферию.
6
00:00:19,972 --> 00:00:22,713
Своим видом они ставят спокойствие
нашего существования под угрозу.
7
00:00:23,013 --> 00:00:25,912
В Гориции они на самой
окраине города.
8
00:00:26,029 --> 00:00:29,516
Стена больницы совпадает с
границей между Италией
9
00:00:29,899 --> 00:00:31,920
и Югославией.
10
00:00:32,302 --> 00:00:34,097
Я приехал посмотреть на лечебницу,
11
00:00:34,397 --> 00:00:38,620
историей которой занимаются ученые
и культурологи со всего мира,
12
00:00:38,924 --> 00:00:43,584
и о которой мы рискуем узнать
только из хроники.
13
00:00:58,018 --> 00:01:00,705
Кадры этой кинохроники
принадлежат больнице.
14
00:01:01,005 --> 00:01:04,033
Перед нами документация жизни
закрытого сумасшедшего дома,
15
00:01:04,333 --> 00:01:06,334
типичной психиатрической
институции.
16
00:01:06,611 --> 00:01:11,999
Эти кадры сдали в архив
в тот день, как больница их отвергла.
17
00:01:12,408 --> 00:01:14,999
Мы могли бы обвинить себя в том,
18
00:01:15,326 --> 00:01:18,032
что используем новую форму насилия
по отношению к этим людям,
19
00:01:18,332 --> 00:01:22,033
показывая в больнице, оберегающей
общество отвергнутых, лицо боли,
20
00:01:22,342 --> 00:01:26,322
которое оправданно боится клейма.

Скриншот c названием фильма

Скриншоты

[teatrix.ru].t10802.torrent 
Торрент: Зарегистрирован [ 2015-11-20 00:05 ] · E21C7E49C6834D1C425855120904888CE48633EC

Скачать .torrent

Скачать

13 KB

Статус: проверено
Скачан: 0 раз
Размер: 41 MB
terms.php



Быстрый ответ

Имя:

      
Для отправки сообщений необходимо включить JavaScript
Показать сообщения:    

Текущее время: 07-Дек 19:30

Часовой пояс: UTC + 3


Вы можете начинать темы
Вы можете отвечать на сообщения
Вы не можете редактировать свои сообщения
Вы не можете удалять свои сообщения
Вы не можете голосовать в опросах
Вы не можете прикреплять файлы к сообщениям
Вы можете скачивать файлы