Маленькие люди в шляпах / Small people with hats (Сарина Нихеи / Sarina Nihei) [2014, Великобритания, авторская анимация, WEBRip]


 

[Цитировать]

Маленькие люди в шляпах / Small people with hats
Страна: Великобритания
Жанр: авторская анимация
Год выпуска: 2014
Продолжительность: 00:06:51
Перевод: не требуется
Cубтитры: нет
Режиссёр: Сарина Нихеи / Sarina Nihei
Описание: Однажды на улице мужчина сталкивается с карликом в шляпе, и они случайно обмениваются кейсами. Отправившись на поиски своего кейса, мужчина обнаруживает в городе множество одинаковых карликов в шляпах. Их целое сообщество и, кажется, они представляют опасность...
Доп. информация: Best Student Film - "Anim'est", Bucharest (2014)
Grand Prix - "Primanima", Budaörs (2014)
Grand Prize - Ottawa International Animation Film Festival (2015)
Korea Animation Producers Association President’s Prize - "PISAF" (2015)
Special mention - "Anima", Brussels (2015)
Grand Prix student film - "HAFF" (2015)
Grand Prix - IdeasTap Graduate award Short Film (2015)
Special mention - Countryside Animafest, Cyprus (2015)
Качество видео: WEBRip
Формат видео: AVI
Видео: 2296 kbps, 720х400 (16:9), 25.000 fps, MPEG-4 Visual (XviD)
Аудио: 160 kbps, 48.0 kHz, 2 channels, MPEG Audio (MP3)

MediaInfo

General
Complete name : Small people with hats (2014).avi
Format : AVI
Format/Info : Audio Video Interleave
File size : 121 MiB
Duration : 6mn 51s
Overall bit rate : 2 466 Kbps
Writing library : VirtualDub build 35491/release
Video
ID : 0
Format : MPEG-4 Visual
Format profile : Advanced Simple@L5
Format settings, BVOP : 2
Format settings, QPel : No
Format settings, GMC : No warppoints
Format settings, Matrix : Default (H.263)
Codec ID : XVID
Codec ID/Hint : XviD
Duration : 6mn 51s
Bit rate : 2 296 Kbps
Width : 720 pixels
Height : 400 pixels
Display aspect ratio : 16:9
Frame rate : 25.000 fps
Color space : YUV
Chroma subsampling : 4:2:0
Bit depth : 8 bits
Scan type : Progressive
Compression mode : Lossy
Bits/(Pixel*Frame) : 0.319
Stream size : 113 MiB (93%)
Writing library : XviD 64
Audio
ID : 1
Format : MPEG Audio
Format version : Version 1
Format profile : Layer 3
Mode : Joint stereo
Codec ID : 55
Codec ID/Hint : MP3
Duration : 6mn 50s
Bit rate mode : Constant
Bit rate : 160 Kbps
Channel(s) : 2 channels
Sampling rate : 48.0 KHz
Compression mode : Lossy
Stream size : 7.84 MiB (6%)
Alignment : Split accross interleaves
Interleave, duration : 40 ms (1.00 video frame)
Interleave, preload duration : 500 ms

Скриншот c названием фильма

Скриншоты




Показать сообщения:    

Текущее время: 03-Дек 05:22

Часовой пояс: UTC + 3


Вы не можете начинать темы
Вы не можете отвечать на сообщения
Вы не можете редактировать свои сообщения
Вы не можете удалять свои сообщения
Вы не можете голосовать в опросах
Вы не можете прикреплять файлы к сообщениям
Вы не можете скачивать файлы