Танака Мин в клинике La Borde / Tanaka Min a La Borde (Франсуа Пэн/François Pain) [1986, Франция, документальный, короткометражный, VHSRip] + Sub Rus + Original Fre


Статистика раздачи [Обновить пиров]
Размер:  94 MB   |    Зарегистрирован:  1 год   |    Скачан:  0 раз

Полного источника не было: Никогда

Личеров:  3  [  0 KB/s  ]   Подробная статистика пиров
 
   
 
 
 

[Цитировать]

Танака Мин в клинике La Borde / Tanaka Min a La Borde
Страна: Франция
Жанр: документальный, короткометражный
Год выпуска: 1986
Продолжительность: 00:12:36 + 00:12:16
Перевод: Субтитры
Cубтитры: русские
Оригинальная аудиодорожка: французский
Режиссер: Франсуа Пэн/François Pain
В ролях: сотрудники, пациенты, посетители психиатрической клиники La Borde.
Описание: Танака Мин: “Вместе с нашими телами мы воплощаем единое тело, которое не принадлежит ни одному телу ­- тело земли”.
Танака Мин, японский танцор буто, создатель лаборатории по метеорологии тела, осуществил попытку переосмысления пространства тела клиники через использование тела, переходящего от нормативной человеческой телесности к собственно телу. Пациенты клиники рассказывают об опыте взаимодействия с телом хаосмического танца.
Фильм входит в цикл кинопоказов | бред очарования гипнотического |, подготовленного в рамках программы международного фестиваля активистского искусства «МедиаУдар», где кино станет поводом к дискуссии и поможет расширить горизонт восприятия нормативности и субъективности, психического расстройства, оказания психиатрической помощи и т.д. Выбранные для просмотра фильмы сгруппированы в соответствии с видом опыта: опыт художественной рефлексии («Я и мой брат»), опыт действия и взаимодействия пациентов, сотрудников больницы, горожан, городской администрации, художников, социальных работников («Сады Авеля», «Полёт», «Всё малое», «Мин Танака в клинике La Borde»). Действия разворачиваются на территориях стран так называемого антипсихиатрического пояса: Италия, Франция, США.
Специально для кинолектория фильмы были впервые переведены на русский язык и субтитрованы.
Организаторы: София Пигалова и Анастасия Дмитриевская.
Описание: Анастасия Дмитриевская, Никита Левитский
Перевод: Дмитрий Жуков
Доп. информация: Значительный вклад в подготовку фильма внесли: Abris подготовка субтитров и тайминга, daft­digger релиз.
Сэмплы: http://multi-up.com/1076044 + http://multi-up.com/1076045
Качество видео: VHSRip
Формат видео: MP4

Технические характеристики файлов

Min a La Borde-1
Видео: AVC at 464 kbps, 0.107 bit/pixel, 480x360 at 25,000 fps
Аудио: AAC at 96,0 kbps, 2 ch, 44,1 kHz
Формат субтитров: SRT
Min a La Borde-2
Видео: AVC at 395 kbps, 0.092 bit/pixel, 480x360 at 25,000 fps
Аудио: AAC at 96,0 kbps, 2 ch, 44,1 kHz
Формат субтитров: SRT

MediaInfo

Min a La Borde-1
Общее
Полное имя : Min_a_La_Borde-1.mp4
Формат : MPEG-4
Профиль формата : Base Media / Version 2
Идентификатор кодека : mp42
Размер файла : 50,7 Мбайт
Продолжительность : 12 м.
Режим общего битрейта : Переменный
Общий поток : 562 Кбит/сек
Дата кодирования : UTC 2014-08-23 03:19:34
Дата пометки : UTC 2014-08-23 03:19:34
gsst : 0
gstd : 756528
gssd : B4A7DDAC1HM1441203895102573
gshh : r1---sn-4g57kuek.googlevideo.com
Видео
Идентификатор : 1
Формат : AVC
Формат/Информация : Advanced Video Codec
Профиль формата : Baseline@L2.1
Параметр CABAC формата : Нет
Параметр ReFrames формата : 1 кадр
Идентификатор кодека : avc1
Идентификатор кодека/Информация : Advanced Video Coding
Продолжительность : 12 м.
Битрейт : 464 Кбит/сек
Максимальный битрейт : 1143 Кбит/сек
Ширина : 480 пикселей
Высота : 360 пикселей
Соотношение сторон : 4:3
Режим частоты кадров : Постоянный
Частота кадров : 25,000 кадров/сек
Цветовое пространство : YUV
Субдискретизация насыщенности : 4:2:0
Битовая глубина : 8 бит
Тип развёртки : Прогрессивная
Бит/(Пиксели*Кадры) : 0.107
Размер потока : 41,8 Мбайт (82%)
Дата пометки : UTC 2014-08-23 03:19:41
Аудио
Идентификатор : 2
Формат : AAC
Формат/Информация : Advanced Audio Codec
Профиль формата : LC
Идентификатор кодека : 40
Продолжительность : 12 м.
Вид битрейта : Переменный
Битрейт : 96,0 Кбит/сек
Максимальный битрейт : 100 Кбит/сек
Каналы : 2 канала
Расположение каналов : Front: L R
Частота : 44,1 КГц
Метод сжатия : С потерями
Размер потока : 8,66 Мбайт (17%)
Заголовок : IsoMedia File Produced by Google, 5-11-2011
Дата кодирования : UTC 2014-08-23 03:19:38
Дата пометки : UTC 2014-08-23 03:19:41
Min a La Borde-2
Общее
Полное имя : Min_a_La_Borde-2.mp4
Формат : MPEG-4
Профиль формата : Base Media / Version 2
Идентификатор кодека : mp42
Размер файла : 43,3 Мбайт
Продолжительность : 12 м.
Режим общего битрейта : Переменный
Общий поток : 494 Кбит/сек
Дата кодирования : UTC 2014-06-16 18:37:49
Дата пометки : UTC 2014-06-16 18:37:49
gsst : 0
gstd : 736095
gssd : B0AFCE845HM1441204165511754
gshh : r18---sn-aiglln7e.googlevideo.com
Видео
Идентификатор : 1
Формат : AVC
Формат/Информация : Advanced Video Codec
Профиль формата : Baseline@L2.1
Параметр CABAC формата : Нет
Параметр ReFrames формата : 1 кадр
Параметр GOP формата : M=1, N=60
Идентификатор кодека : avc1
Идентификатор кодека/Информация : Advanced Video Coding
Продолжительность : 12 м.
Битрейт : 395 Кбит/сек
Максимальный битрейт : 962 Кбит/сек
Ширина : 480 пикселей
Высота : 360 пикселей
Соотношение сторон : 4:3
Режим частоты кадров : Постоянный
Частота кадров : 25,000 кадров/сек
Цветовое пространство : YUV
Субдискретизация насыщенности : 4:2:0
Битовая глубина : 8 бит
Тип развёртки : Прогрессивная
Бит/(Пиксели*Кадры) : 0.092
Размер потока : 34,7 Мбайт (80%)
Дата пометки : UTC 2014-06-16 18:37:56
Аудио
Идентификатор : 2
Формат : AAC
Формат/Информация : Advanced Audio Codec
Профиль формата : LC
Идентификатор кодека : 40
Продолжительность : 12 м.
Вид битрейта : Переменный
Битрейт : 96,0 Кбит/сек
Максимальный битрейт : 101 Кбит/сек
Каналы : 2 канала
Расположение каналов : Front: L R
Частота : 44,1 КГц
Метод сжатия : С потерями
Размер потока : 8,42 Мбайт (19%)
Заголовок : IsoMedia File Produced by Google, 5-11-2011
Дата кодирования : UTC 2014-06-16 18:37:53
Дата пометки : UTC 2014-06-16 18:37:56

Фрагменты субтитров

Min a La Borde-1
1
00:00:16,606 --> 00:00:20,400
Мин Танака.
Японский танцор.
2
00:00:21,160 --> 00:00:23,640
Один из изобретателей
новой манеры танца,
3
00:00:24,280 --> 00:00:26,205
которая называется буто.
4
00:00:27,000 --> 00:00:29,800
Что-то вроде танца тьмы.
5
00:00:31,300 --> 00:00:33,400
Он часто приезжает во Францию.
6
00:00:33,700 --> 00:00:37,900
Но в этот раз он захотел
танцевать лишь на одной сцене,
7
00:00:38,520 --> 00:00:40,320
в необычном месте.
8
00:00:41,160 --> 00:00:43,160
Он выбрал Ла Борд,
9
00:00:43,500 --> 00:00:46,400
психиатрическую клинику,
непохожую на другие.
10
00:01:06,606 --> 00:01:09,600
Дамы и господа,
11
00:01:10,600 --> 00:01:12,600
представление вот-вот начнется.
Min a La Borde-2
1
00:00:03,875 --> 00:00:07,400
Японский танец. Он создал
универсальное творение.
2
00:00:08,387 --> 00:00:11,662
Но он сказал, что это буто,
Хиросима, кто знает…
3
00:00:12,123 --> 00:00:15,968
Все знают про ки [жизненная энергия],
все знают про до [путь].
4
00:00:18,801 --> 00:00:23,856
Это изобретение, его творение.
Он окрестил свой танец «буто».
5
00:00:26,597 --> 00:00:27,847
Александр.
6
00:00:28,276 --> 00:00:30,000
Я думаю,
я думаю...
7
00:00:30,808 --> 00:00:32,998
- Неплохо.
- Это было потрясающе,
8
00:00:33,965 --> 00:00:35,845
потому что это выражало,
9
00:00:36,222 --> 00:00:40,782
потому что выражало вещи,
людей, которых мы знали,
10
00:00:41,702 --> 00:00:45,127
или то, что происходит,
то, что произошло.
11
00:00:45,789 --> 00:00:46,994
И что... ещё...
12
00:00:52,800 --> 00:00:54,010
Минувшее?
13
00:00:55,017 --> 00:00:57,287
Да, все это минувшее…
14
00:01:00,279 --> 00:01:03,669
Это в сжатом виде
дает всеобщую культуру.
15
00:01:03,984 --> 00:01:06,514
Я просто подбирал
для этого слова.
16
00:01:09,059 --> 00:01:11,993
Он показывал,
он показывал,
17
00:01:12,259 --> 00:01:17,804
все, что происходило в Ля Борд
18
00:01:20,407 --> 00:01:21,972
в последние годы.
19
00:01:23,575 --> 00:01:24,925
Что например?
20
00:01:25,326 --> 00:01:29,081
Это заставило меня
задуматься о друзьях,

Скриншот c названием фильма

Скриншоты

[teatrix.ru].t10811.torrent 
Торрент: Зарегистрирован [ 2015-11-21 02:01 ] · CC90D5DD348A0338CBCA7EEC1839EDFF7D5059E4

Скачать .torrent

Скачать

15 KB

Статус: проверено
Скачан: 0 раз
Размер: 94 MB
terms.php



Быстрый ответ

Имя:

      
Для отправки сообщений необходимо включить JavaScript
Показать сообщения:    

Текущее время: 03-Дек 01:22

Часовой пояс: UTC + 3


Вы можете начинать темы
Вы можете отвечать на сообщения
Вы не можете редактировать свои сообщения
Вы не можете удалять свои сообщения
Вы не можете голосовать в опросах
Вы не можете прикреплять файлы к сообщениям
Вы можете скачивать файлы