(Classical) Haydn 2032, No.2: Il Filosofo - Symphonies Nos. 46, 22, 47 • W.F.Bach - Symphony in F major - Il Giardino Armonico, Giovanni Antonini - 2015, FLAC (image+.cue) lossless


 

[Цитировать]

Haydn 2032, No.2: Il Filosofo - Symphonies Nos. 46, 22, 47 • W.F.Bach - Symphony in F major - Il Giardino Armonico, Giovanni Antonini
Жанр: Classical
Год издания диска: 2015
Издатель (лейбл): Alpha Classics
Номер по каталогу: Alpha 671
Дата записи: 2014
Аудиокодек: FLAC
Тип рипа: image+.cue
Битрейт аудио: lossless
Продолжительность: 75:18
Источник: собственный рип
Наличие сканов в содержимом раздачи: да
Треклист:
Franz Joseph Haydn (1732-1809)
[1]-[4] Symphony No.46 in B major, Hob.I:46
[5]-[8] Symphony No.22 in E flat major «Der Philosoph», Hob.I:22
Wilhelm Friedemann Bach (1710-1784)
[9]-[12] Symphony in F major for strings and b. c., BR C 2 / Fk 67
Franz Joseph Haydn
[13]-[16] Symphony No.47 in G major, Hob.I:47
Исполнители:
Il Giardino Armonico
Giovanni Antonini
conductor

Лог создания рипа

Exact Audio Copy V1.1 from 23. June 2015
EAC extraction logfile from 7. November 2015, 10:25
Il Giardino Armonico, Giovanni Antonini / Il Filosofo
Used drive : HL-DT-STDVDRAM GU70N Adapter: 1 ID: 0
Read mode : SecureUtilize accurate stream : YesDefeat audio cache : YesMake use of C2 pointers : No
Read offset correction : 48Overread into Lead-In and Lead-Out : NoFill up missing offset samples with silence : YesDelete leading and trailing silent blocks : NoNull samples used in CRC calculations : YesUsed interface : Native Win32 interface for Win NT & 2000
Used output format : User Defined EncoderSelected bitrate : 128 kBit/sQuality : HighAdd ID3 tag : NoCommand line compressor : C:\Program Files (x86)\Exact Audio Copy\Flac\flac.exeAdditional command line options : -V -8 -T "Date=%year%" -T "Genre=%genre%" %source%
TOC of the extracted CD
Track | Start | Length | Start sector | End sector --------------------------------------------------------- 1 | 0:00.00 | 7:34.09 | 0 | 34058 2 | 7:34.09 | 7:27.54 | 34059 | 67637 3 | 15:01.63 | 2:06.21 | 67638 | 77108 4 | 17:08.09 | 5:57.65 | 77109 | 103948 5 | 23:05.74 | 7:18.42 | 103949 | 136840 6 | 30:24.41 | 4:06.12 | 136841 | 155302 7 | 34:30.53 | 2:22.64 | 155303 | 166016 8 | 36:53.42 | 2:55.08 | 166017 | 179149 9 | 39:48.50 | 4:15.47 | 179150 | 198321 10 | 44:04.22 | 3:52.35 | 198322 | 215756 11 | 47:56.57 | 3:15.27 | 215757 | 230408 12 | 51:12.09 | 2:13.08 | 230409 | 240391 13 | 53:25.17 | 7:50.74 | 240392 | 275715 14 | 61:16.16 | 6:34.47 | 275716 | 305312 15 | 67:50.63 | 2:00.34 | 305313 | 314346 16 | 69:51.22 | 5:27.32 | 314347 | 338903
Range status and errors
Selected range
Filename C:\temp\Alpha 671 Haydn2032 No.2 - Il Filosofo\Il Filosofo.wav
Peak level 96.6 % Extraction speed 2.3 X Range quality 100.0 % Test CRC 36BDA47D Copy CRC 36BDA47D Copy OK
No errors occurred
AccurateRip summary
Track 1 accurately ripped (confidence 3) [D996F54F] (AR v2)Track 2 accurately ripped (confidence 3) [0A0DD899] (AR v2)Track 3 accurately ripped (confidence 3) [46481DD2] (AR v2)Track 4 accurately ripped (confidence 3) [56FEA61E] (AR v2)Track 5 accurately ripped (confidence 3) [2FD475C6] (AR v2)Track 6 accurately ripped (confidence 3) [8393277B] (AR v2)Track 7 accurately ripped (confidence 3) [3E4EB40B] (AR v2)Track 8 accurately ripped (confidence 3) [6C1D8FF2] (AR v2)Track 9 accurately ripped (confidence 3) [FB4E06B4] (AR v2)Track 10 accurately ripped (confidence 3) [9DC0E6A4] (AR v2)Track 11 accurately ripped (confidence 3) [29963B50] (AR v2)Track 12 accurately ripped (confidence 3) [8FB7EAA6] (AR v2)Track 13 accurately ripped (confidence 3) [8FC23EF5] (AR v2)Track 14 accurately ripped (confidence 3) [97F30727] (AR v2)Track 15 accurately ripped (confidence 3) [E9D19135] (AR v2)Track 16 accurately ripped (confidence 3) [12668F2C] (AR v2)
All tracks accurately ripped
End of status report
==== Log checksum 1A25105F3D977EDCD31D8D9DA849EC2466076687A4FA8CE3F44C4AAE4C884372 ====



Показать сообщения:    

Текущее время: 09-Дек 18:31

Часовой пояс: UTC + 3


Вы не можете начинать темы
Вы не можете отвечать на сообщения
Вы не можете редактировать свои сообщения
Вы не можете удалять свои сообщения
Вы не можете голосовать в опросах
Вы не можете прикреплять файлы к сообщениям
Вы не можете скачивать файлы