(Classical) Placido Domingo - 2015, FLAC (image+.cue) lossless


 

[Цитировать]

Placido Domingo
Жанр: Classical
Страна-производитель диска: Made In The EU
Год издания диска: 2015
Издатель (лейбл): Sony Music
Номер по каталогу: 88875117432
Дата записи: 2015
Аудиокодек: FLAC
Тип рипа: image+.cue
Битрейт аудио: lossless
Продолжительность: 46:38
Источник: собственный рип
Наличие сканов в содержимом раздачи: да
Треклист:
01. Have Yourself A Merry Little Christmas [0:03:50.17]
02. Guardian Angels [0:03:47.56]
03. Silent Night [0:03:27.15]
04. What Child Is This [0:03:52.46]
05. God Rest Ye Merry, Gentlemen [0:03:21.06]
06. Hark! The Herald Angels Sing [0:03:34.67]
07. Pie Jesu From Requiem [0:03:53.26]
08. Astro Del Cielo [0:03:15.60]
09. Loving Christmas With You [0:03:42.45]
10. It Came Upon The Midnight Clear [0:04:39.39]
11. White Christmas [0:03:44.11]
12. Ave Verum Corpus [0:02:36.70]
13. Feliz Navidad [0:02:51.30]
Исполнители:
Placido Domingo
Vincent Niclo
Idina Menzel
The Piano Guys
Helene Fischer
The Voices Of Los Angeles Opera`s Domingo - Colburn - Stein Young Artist Program
Jackie Evancho
Hayley Westenra
Placido Domingo Jr.
Banda El Recodo

Лог создания рипа

Exact Audio Copy V1.0 beta 3 from 29. August 2011
EAC extraction logfile from 19. November 2015, 21:28
Placido Domingo / My Christmas
Used drive : MATSHITADVD-RAM UJ890AS Adapter: 0 ID: 1
Read mode : SecureUtilize accurate stream : YesDefeat audio cache : YesMake use of C2 pointers : No
Read offset correction : 102Overread into Lead-In and Lead-Out : NoFill up missing offset samples with silence : YesDelete leading and trailing silent blocks : NoNull samples used in CRC calculations : YesUsed interface : Native Win32 interface for Win NT & 2000
Used output format : Internal WAV RoutinesSample format : 44.100 Hz; 16 Bit; Stereo
TOC of the extracted CD
Track | Start | Length | Start sector | End sector --------------------------------------------------------- 1 | 0:00.00 | 3:50.17 | 0 | 17266 2 | 3:50.17 | 3:47.56 | 17267 | 34347 3 | 7:37.73 | 3:27.15 | 34348 | 49887 4 | 11:05.13 | 3:52.46 | 49888 | 67333 5 | 14:57.59 | 3:21.06 | 67334 | 82414 6 | 18:18.65 | 3:34.67 | 82415 | 98531 7 | 21:53.57 | 3:53.26 | 98532 | 116032 8 | 25:47.08 | 3:15.60 | 116033 | 130717 9 | 29:02.68 | 3:42.45 | 130718 | 147412 10 | 32:45.38 | 4:39.39 | 147413 | 168376 11 | 37:25.02 | 3:44.11 | 168377 | 185187 12 | 41:09.13 | 2:36.70 | 185188 | 196957 13 | 43:46.08 | 2:51.30 | 196958 | 209812
Range status and errors
Selected range
Filename G:\D\Загрузка\Placido Domingo\Placido Domingo - My Christmas.wav
Peak level 97.6 % Extraction speed 2.4 X Range quality 100.0 % Test CRC DFBB09BD Copy CRC DFBB09BD Copy OK
No errors occurred
AccurateRip summary
Track 1 not present in databaseTrack 2 not present in databaseTrack 3 not present in databaseTrack 4 not present in databaseTrack 5 not present in databaseTrack 6 not present in databaseTrack 7 not present in databaseTrack 8 not present in databaseTrack 9 not present in databaseTrack 10 not present in databaseTrack 11 not present in databaseTrack 12 not present in databaseTrack 13 not present in database
None of the tracks are present in the AccurateRip database
End of status report

Содержание индексной карты (.CUE)

REM GENRE OperaREM DATE 2015REM DISCID BD0AED0DREM COMMENT "ExactAudioCopy v1.0b3"PERFORMER "Placido Domingo"TITLE "My Christmas"FILE "Placido Domingo - My Christmas.flac" WAVE TRACK 01 AUDIO TITLE "Have Yourself A Merry Little Christmas" PERFORMER "Placido Domingo" INDEX 01 00:00:00 TRACK 02 AUDIO TITLE "Guardian Angels" PERFORMER "Placido Domingo" INDEX 01 03:50:17 TRACK 03 AUDIO TITLE "Silent Night" PERFORMER "Placido Domingo" INDEX 01 07:37:73 TRACK 04 AUDIO TITLE "What Child Is This" PERFORMER "Placido Domingo" INDEX 01 11:05:13 TRACK 05 AUDIO TITLE "God Rest Ye Merry, Gentlemen" PERFORMER "Placido Domingo" INDEX 01 14:57:59 TRACK 06 AUDIO TITLE "Hark! The Herald Angels Sing" PERFORMER "Placido Domingo" INDEX 01 18:18:65 TRACK 07 AUDIO TITLE "Pie Jesu From Requiem" PERFORMER "Placido Domingo" INDEX 01 21:53:57 TRACK 08 AUDIO TITLE "Astro Del Cielo" PERFORMER "Placido Domingo" INDEX 01 25:47:08 TRACK 09 AUDIO TITLE "Loving Christmas With You" PERFORMER "Placido Domingo" INDEX 01 29:02:68 TRACK 10 AUDIO TITLE "It Came Upon The Midnight Clear" PERFORMER "Placido Domingo" INDEX 01 32:45:38 TRACK 11 AUDIO TITLE "White Christmas" PERFORMER "Placido Domingo" INDEX 01 37:25:02 TRACK 12 AUDIO TITLE "Ave Verum Corpus" PERFORMER "Placido Domingo" INDEX 01 41:09:13 TRACK 13 AUDIO TITLE "Feliz Navidad" PERFORMER "Placido Domingo" INDEX 01 43:46:08



Показать сообщения:    

Текущее время: 18-Янв 02:33

Часовой пояс: UTC + 3


Вы не можете начинать темы
Вы не можете отвечать на сообщения
Вы не можете редактировать свои сообщения
Вы не можете удалять свои сообщения
Вы не можете голосовать в опросах
Вы не можете прикреплять файлы к сообщениям
Вы не можете скачивать файлы