Седьмой день / El Septimo Dia / El Séptimo día / The Seventh Day / The 7th Day (Карлос Саура / Carlos Saura) [2004, Испания, драма, DVDRip] AVO (Алексеев) + AVO (Кузнецов) + Sub Eng + Original Spa


Статистика раздачи [Обновить пиров]
Размер:  1.71 GB   |    Зарегистрирован:  1 год   |    Скачан:  0 раз

Полного источника не было: Никогда

Личеров:  3  [  0 KB/s  ]   Подробная статистика пиров
 
   
 
 
 

[Цитировать]

Седьмой день / El Septimo Dia / El Séptimo día / The Seventh Day / The 7th Day
Страна: Испания
Жанр: драма
Год выпуска: 2004
Продолжительность: 01:35:41
Перевод: Авторский (одноголосый закадровый) - Антон Алексеев
Перевод: Авторский (одноголосый закадровый) - Сергей Кузнецов
Cубтитры: английские
Оригинальная аудиодорожка: испанский

Режиссер: Карлос Саура / Carlos Saura
В ролях: Хуан Диего, Хосе Луис Гомес, Хосе Гарсия, Виктория Абриль, Йохана Кобо, Евлалиа Рамон, Рамон Фонтсере, Карлос Хиполито, Ориол Вила, Ана Вадженер
Описание: Это мрачная история кровной мести, основанная на реальных событиях. "Бог создал мир за 6 дней, а в 7-й день Он отдыхал, поэтому самые страшные события происходят в воскресенье, пока Господь спит" - так говорит девочка, от имени которой ведется.
Лусиана, у которой много лет назад убили возлюбленного, до сих пор хранит свадебное платье и иногда выходит в нем на улицу. Возлюбленного убил человек из ее семьи. А за это семья жениха сожгла ее дом (в котором находилась мать). Семью Лусианы теперь проклинают в округе, и она вынашивает планы мести.

Качество видео: DVDRip
Формат видео: AVI
Видео: 704x384 (1.83:1), 25 fps, XviD build 73 ~1976 kbps avg, 0.29 bit/pixel
Аудио: 48 kHz, AC3 Dolby Digital, 2/0 (L,R) ch, ~192 kbps - Алексеев
отдельными файлами:
Аудио: 48 kHz, AC3 Dolby Digital, 2/0 (L,R) ch, ~192 kbps - Кузнецов
Аудио: 48 kHz, AC3 Dolby Digital, 2/0 (L,R) ch, ~192 kbps - оригинал

MediaInfo

Общее
Полное имя : H:\El.septimo.dia.2004.dvdrip _[1.46]_[teko]\El.septimo.dia.2004.dvdrip _[1.46].avi
Формат : AVI
Формат/Информация : Audio Video Interleave
Размер файла : 1,46 Гбайт
Продолжительность : 1 ч. 35 м.
Общий поток : 2178 Кбит/сек
Программа кодирования : VirtualDubMod 1.5.10.3 | www.virtualdub-fr.org || (build 2550/release)
Библиотека кодирования : VirtualDubMod build 2550/release
Видео
Идентификатор : 0
Формат : MPEG-4 Visual
Профиль формата : Advanced Simple@L5
Параметр BVOP формата : 1
Параметр QPel формата : Нет
Параметр GMC формата : Без точки перехода
Параметр матрицы формата : Выборочная
Идентификатор кодека : XVID
Идентификатор кодека/Подсказка : XviD
Продолжительность : 1 ч. 35 м.
Битрейт : 1977 Кбит/сек
Ширина : 704 пикселя
Высота : 384 пикселя
Соотношение сторон : 1,85:1
Частота кадров : 25,000 кадров/сек
Цветовое пространство : YUV
Субдискретизация насыщенности : 4:2:0
Битовая глубина : 8 бит
Тип развёртки : Прогрессивная
Метод сжатия : С потерями
Бит/(Пиксели*Кадры) : 0.292
Размер потока : 1,32 Гбайт (91%)
Библиотека кодирования : XviD 73
Аудио
Идентификатор : 1
Формат : AC-3
Формат/Информация : Audio Coding 3
Расширение режима : CM (complete main)
Параметр Endianness формата : Big
Идентификатор кодека : 2000
Продолжительность : 1 ч. 35 м.
Вид битрейта : Постоянный
Битрейт : 192 Кбит/сек
Каналы : 2 канала
Расположение каналов : Front: L R
Частота : 48,0 КГц
Битовая глубина : 16 бит
Метод сжатия : С потерями
Размер потока : 131 Мбайт (9%)
Выравнивание : Разделение по промежуткам
Продолжительность промежутка : 40 мс. (1,00 видеокадр)
Время предзагрузки промежутка : 500 мс.
[teatrix.ru].t10816.torrent 
Торрент: Зарегистрирован [ 2015-11-21 14:50 ] · 77F76664AE48BE77C876F537EA1007F7EBD46E76

Скачать .torrent

Скачать

18 KB

Статус: проверено
Скачан: 0 раз
Размер: 1.71 GB
terms.php



Быстрый ответ

Имя:

      
Для отправки сообщений необходимо включить JavaScript
Показать сообщения:    

Текущее время: 03-Дек 16:46

Часовой пояс: UTC + 3


Вы можете начинать темы
Вы можете отвечать на сообщения
Вы не можете редактировать свои сообщения
Вы не можете удалять свои сообщения
Вы не можете голосовать в опросах
Вы не можете прикреплять файлы к сообщениям
Вы можете скачивать файлы