Редьярд Киплинг "Кошка, которая гуляла сама по себе", "Рикки-Тикки-Тави" [2015 г., Литературно-музыкальная композиция, WEB-DLRip] Из цикла "Сказки с оркестром"


 

[Цитировать]

Редьярд Киплинг "Кошка, которая гуляла сама по себе", "Рикки-Тикки-Тави" Из цикла "Сказки с оркестром".
Год выпуска: 2015.
Жанр: Литературно-музыкальная композиция.
Продолжительность: 01:27:49.
Сказку читает: Григорий Сиятвинда.
Описание:
Сказки Редьярда Киплинга "Кошка, которая гуляла сама по себе" и "Рикки-Тикки-Тави".
Дополнительная информация:
Страна: Россия .
По сказкам Редьярда Киплинга.
Запись из концертного зала имени Чайковского.
Академический симфонический оркестр Московской филармонии.
Дирижер:
Игорь Манашеров.
Звучит музыка: Клода Дебюсси, Мориса Равеля, Сергея Прокофьева, Альберто Хинастеры, Александра Чайковского, Карлоса Гарделя.
Концерт состоялся 18.10.2015 года.
Абонемент №58А:
Сказки с оркестром.

Релиз
Рип lesik689 .

Качество видео:...WEB-DLRip
Формат:.................AVI
Видео:..720x400 (1.80:1), 25 fps, XviD build 73 ~1702 kbps avg, 0.24 bit/pixel
Аудио:..44.100 kHz, MPEG Layer 3, 2 ch, ~192.00 kbps avg

Отчет MI

General
Complete name : Skazki.s.orkestrom.Rudyard.Kipling.2015.XviD.WEB-DLRip.fenixclub.avi
Format : AVI
Format/Info : Audio Video Interleave
File size : 1.17 GiB
Duration : 1h 27mn
Overall bit rate : 1 904 Kbps
Video
ID : 0
Format : MPEG-4 Visual
Format profile : Advanced Simple@L5
Format settings, BVOP : 2
Format settings, QPel : No
Format settings, GMC : No warppoints
Format settings, Matrix : Default (MPEG)
Codec ID : XVID
Codec ID/Hint : XviD
Duration : 1h 27mn
Bit rate : 1 702 Kbps
Width : 720 pixels
Height : 400 pixels
Display aspect ratio : 16:9
Frame rate : 25.000 fps
Color space : YUV
Chroma subsampling : 4:2:0
Bit depth : 8 bits
Scan type : Progressive
Compression mode : Lossy
Bits/(Pixel*Frame) : 0.236
Stream size : 1.04 GiB (89%)
Writing library : XviD 73
Audio
ID : 1
Format : MPEG Audio
Format version : Version 1
Format profile : Layer 3
Mode : Joint stereo
Codec ID : 55
Codec ID/Hint : MP3
Duration : 1h 27mn
Bit rate mode : Constant
Bit rate : 192 Kbps
Channel(s) : 2 channels
Sampling rate : 44.1 KHz
Compression mode : Lossy
Stream size : 120 MiB (10%)
Alignment : Split accross interleaves
Interleave, duration : 40 ms (1.00 video frame)
Interleave, preload duratio : 500 ms.

Скриншоты

Альтернативный хост




Показать сообщения:    

Текущее время: 11-Дек 13:03

Часовой пояс: UTC + 3


Вы не можете начинать темы
Вы не можете отвечать на сообщения
Вы не можете редактировать свои сообщения
Вы не можете удалять свои сообщения
Вы не можете голосовать в опросах
Вы не можете прикреплять файлы к сообщениям
Вы не можете скачивать файлы