Кто я? / Медведь / Юбилейный вечер к 80-летию Сергея Кортеса (Константин Кузнецов, Юлия Дятко, Галина Галковская) [2015, Balett, Opera, DVB-AVC]


 

[Цитировать]

Кто я? / Медведь / Юбилейный вечер к 80-летию Сергея Кортеса
Год выпуска: 2015
Страна-производитель: Республика Беларусь
Постановка: Национальный Академический Большой Театр Оперы и Балета Республики Беларусь
Жанр: Balett, Opera
Продолжительность: 01:28:16
Язык: Русский
Режиссер/Хореограф: Константин Кузнецов, Юлия Дятко, Галина Галковская
Описание: Юбилейный вечер к 80-летию Сергея Кортеса, композитора, народного артиста Беларуси, состоявшийся 28 февраля 2015 г.
В рамках вечера были исполнены балет «Кто я?» и опера «Медведь».
Первое отделение
«Кто я?» Балет в одном действии.
"Кто Я?" — одноактовое либретто, являющееся переработанной версией балета "Последний инка", сообщили в интервью Sputnik хореографы-постановщики спектакля Константин Кузнецов и Юлия Дятко.
При постановке балета, мастера театра решили отойти от темы борьбы индейцев с конкистадорами, которая являлась главной в либретто "Последний инка", и придумали свой сюжет, отличный от исторической тематики.
Основная идея балета "Кто Я?" — борьба главного героя с моральными устоями процветавшей когда-то высокотехнологичной цивилизации, но спустя годы пришедшей в упадок, рассказал постановщик балета Константин Кузнецов.
"Главная отличительная особенность персонажей на сцене в том, что они унифицированы, все носят одинаковые маски… Но находится среди них один, который решается маску сбросить…", — уточнил балетмейстер.
Сергей Альбертович Кортес — сын чилийских иммигрантов, переехавших в СССР в 1955 году. Кортес является автором партитур к спектаклям, поставленным в разные годы во многих театрах Беларуси, к тому же композитор, будучи главным музыкальным редактором киностудии "Беларусьфильм" в 1980-е, писал музыку к фильмам, в числе которых "Возьму твою боль", "Черный замок Ольшанский" и другие.
Балет "Последний инка", музыку к которому написал Кортес, впервые был показан в 1990 году на сцене зала имени Гарсиа Лорки Большого театра Гаваны и принес композитору международную известность.
Композитор — Сергей Кортес
Авторы либретто, хореографии и постановки — Константин Кузнецов, Юлия Дятко
Дирижер-постановщик — Олег Лесун
Художник-постановщик — Александр Костюченко
Художник по костюмам — Екатерина Булгакова
Художник по свету — Нина Иванкина
Художник-дизайнер компьютерной графики — Елена Ахременко
Дирижер — Иван Костяхин
Премьера – 28 февраля 2015 года
Действующие лица и исполнители:
Юноша — Юрий Ковалёв
Девушка — Марина Вежновец
а также артисты балета Большого театра.
Второе отделение
«Медведь». Комическая опера в одном действии.
Комическая опера современного композитора Сергея Кортеса написана по пьесе А.П.Чехова "Медведь". Музыкальное воплощение этой по-доброму насмешливой и забавной истории, где нестарый еще помещик Смирнов является к молодой вдове Поповой, чтобы востребовать долг её покойного мужа, принесет публике настоящее наслаждение. Продолжив искания в жанре камерной комической оперы, композитор проявил себя мастером тонкого психологического портрета, умело манипулирующим характерами-интонациями.
По словам Сергея Кортеса, "Пьеса А.Чехова - совершенна. В ней с особой точностью выписаны характеры героев, яркие сценические ситуации, она отличается великолепной простотой и остроумием поэтического слога".
Композитор — Сергей Кортес
Либретто — Владимир Халип по мотивам одноименной пьесы Антона Чехова
Дирижер-постановщик — Вячеслав Волич
Режиссер и художник-постановщик — Галина Галковская
Переложение для инструментального ансамбля – Сергей Кортес
Дирижер — Иван Костяхин
Художник по свету — Людмила Кунаш
Ассистент режиссера — Елена Медякова
Премьера - 8 ноября 2011 года
Действующие лица и исполнители:
Елена Ивановна Попова — Елена Бунделева
Григорий Степанович Смирнов — Станислав Трифонов
Лука — Юрий Болотько
а также артисты миманса.
Доп. информация:

Благодарность: исходник для данной раздачи, записан с цифрового наземного канала, т.е. DVB-Т
Запись потока *.ts с наземного цифрового телеканала "Беларусь 3", ремукс в *.mkv программой VideoReDo.
Качество видео: DVB-AVC
Формат видео: MKV
Видео кодек: H.264
Аудио кодек: MP2
Видео: AVC (H264), 720x576 (4:3), 25 fps, 2 107 Kbps
Аудио: MP2, 256 kbps, 2 channels, 48 kHz

MediaInfo

GeneralUnique ID : 189647540207878206584576043898028066873 (0x8EACC9A3DC77A3EDFFEB0B6153DE8839)Complete name : D:\Новая земля 2\Телеоперы\Юбилейный вечер Сергея Кортеса\Юбилейный вечер Сергея Кортеса.mkvFormat : MatroskaFormat version : Version 2File size : 1.49 GiBDuration : 1h 28mnOverall bit rate : 2 411 KbpsWriting application : Lavf52.64.2Writing library : Lavf52.64.2
VideoID : 1Format : AVCFormat/Info : Advanced Video CodecFormat profile : Main@L3.0Format settings, CABAC : YesFormat settings, ReFrames : 4 framesCodec ID : V_MPEG4/ISO/AVCDuration : 1h 28mnBit rate : 2 107 KbpsWidth : 720 pixelsHeight : 576 pixelsDisplay aspect ratio : 4:3Original display aspect ratio : 4:3Frame rate mode : ConstantFrame rate : 25.000 fpsStandard : PALColor space : YUVChroma subsampling : 4:2:0Bit depth : 8 bitsScan type : MBAFFScan order : Top Field FirstBits/(Pixel*Frame) : 0.203Stream size : 1.30 GiB (87%)Default : YesForced : NoColor primaries : BT.601 PALTransfer characteristics : BT.470 System B, BT.470 System GMatrix coefficients : BT.601Color range : Limited
AudioID : 2Format : MPEG AudioFormat version : Version 1Format profile : Layer 2Codec ID : A_MPEG/L2Codec ID/Hint : MP2Duration : 1h 28mnBit rate mode : ConstantBit rate : 256 KbpsChannel(s) : 2 channelsSampling rate : 48.0 KHzCompression mode : LossyStream size : 162 MiB (11%)Language : EnglishDefault : YesForced : No



Показать сообщения:    

Текущее время: 19-Янв 16:04

Часовой пояс: UTC + 3


Вы не можете начинать темы
Вы не можете отвечать на сообщения
Вы не можете редактировать свои сообщения
Вы не можете удалять свои сообщения
Вы не можете голосовать в опросах
Вы не можете прикреплять файлы к сообщениям
Вы не можете скачивать файлы