Жар-птица (Игорь Стравинский, Андрис Лиепа) [2014, Ballet, DVB-AVC]


 

[Цитировать]

Жар-птица
Год выпуска: 2014
Страна-производитель: Республика Беларусь
Постановка: Национальный Академический Большой Театр Оперы и Балета Республики Беларусь
Жанр: Ballet
Продолжительность: 00:53:53
Режиссер/Хореограф: Андрис Лиепа
Исполнители: прошу помощь в заполнении
Описание:
Балет в одном действии по мотивам русских народных сказок.
Преследуя Жар-птицу, Иван-царевич попадает в мрачное царство Кощея. Вдали неясно вырисовывается его замок, окруженный заповедным садом и каменной стеной. На чудесном дереве таинственным огнем загораются золотые яблоки.
Точно пламя пожара, Жар-птица спускается к дереву, не замечая Ивана-царевича. После долгого преследования царевичу удается схватить ее. Жар-птица хочет вырваться из сильных рук и улететь, просит вернуть ей свободу. Иван-царевич уступает ее мольбам. В благодарность Жар-птица дарит ему дивное перо, обладающее волшебной силой, и уносится ввысь.
Из высокого терема в сад Кощея спускаются плененные злодеем царевны. Резвясь, они играют вокруг дерева с золотыми яблоками. В одну из них – Царевну Ненаглядную Красу – влюбляется Иван-царевич.
Внезапно изо всех углов заповедного сада появляется поганая челядь Кощея Бессмертного. Наконец, выходит и он сам – с седой до земли бородой, пальцами, похожими на корневища старого дерева. Опираясь на посох, он медленно и грозно подбирается к Ивану. Гнев Кощея страшен для того, кто посмел проникнуть в его владения. Царевичу грозит участь многих смелых витязей – быть превращенным в камень.
Ради спасения своей возлюбленной Иван-царевич вступает в сражение с Кощеем и его войском. Волшебным пером – подарком-выкупом Жар-птицы – он призывает ее на помощь. Неистовая пляска Девы-птицы увлекает за собой Кощея и его слуг, затанцовывая их до полусмерти. Тем временем Иван-царевич находит и разбивает волшебное яйцо, в котором заключена смерть Кощея. В прах рассыпается поганое царство, исчезают кошмары. Оживают окаменевшие витязи. Роскошный солнечный апофеоз венчает балет.
Доп. информация:
Либретто и хореография – Михаил Фокин
Восстановленная версия хореографии и постановка – народный артист России Андрис Лиепа
Дирижер-постановщик – заслуженный артист Украины Виктор Плоскина
Сценография и костюмы – Леон Бакст
Художник по свету – Нина Иванкина
Ассистенты балетмейстера – заслуженная артистка России Светлана Романова, заслуженный артист России Игорь Пиворович
Премьера – 3 октября 2014 года

Благодарность: исходник для данной раздачи, записан с цифрового наземного канала, т.е. DVB-Т
За что ему большое спасибо!
Запись потока *.ts с наземного цифрового телеканала "Беларусь 3", ремукс в *.mkv программой VideoReDo.
Качество видео: DVB-AVC
Формат видео: MKV
Видео кодек: H.264
Аудио кодек: MP2
Видео: AVC (H264), 720x576 (4:3), 25 fps, 2 206 Kbps
Аудио: MP2, 256 kbps, 2 channels, 48 kHz

MediaInfo

GeneralUnique ID : 320547320774813965937612154808144057066 (0xF1272B1A1F1678538B31D7F99A1D52EA)Complete name : D:\Новая земля 2\Телеоперы\Жар-птица (2014)\Жар-птица (2014).mkvFormat : MatroskaFormat version : Version 2File size : 968 MiBDuration : 53mn 53sOverall bit rate : 2 512 KbpsWriting application : Lavf52.64.2Writing library : Lavf52.64.2
VideoID : 1Format : AVCFormat/Info : Advanced Video CodecFormat profile : Main@L3.0Format settings, CABAC : YesFormat settings, ReFrames : 4 framesCodec ID : V_MPEG4/ISO/AVCDuration : 53mn 53sBit rate : 2 206 KbpsWidth : 720 pixelsHeight : 576 pixelsDisplay aspect ratio : 4:3Original display aspect ratio : 4:3Frame rate mode : ConstantFrame rate : 25.000 fpsStandard : PALColor space : YUVChroma subsampling : 4:2:0Bit depth : 8 bitsScan type : MBAFFScan order : Top Field FirstBits/(Pixel*Frame) : 0.213Stream size : 850 MiB (88%)Default : YesForced : NoColor primaries : BT.601 PALTransfer characteristics : BT.470 System B, BT.470 System GMatrix coefficients : BT.601Color range : Limited
AudioID : 2Format : MPEG AudioFormat version : Version 1Format profile : Layer 2Codec ID : A_MPEG/L2Codec ID/Hint : MP2Duration : 53mn 53sBit rate mode : ConstantBit rate : 256 KbpsChannel(s) : 2 channelsSampling rate : 48.0 KHzCompression mode : LossyStream size : 98.7 MiB (10%)Language : EnglishDefault : YesForced : No



Показать сообщения:    

Текущее время: 04-Дек 02:55

Часовой пояс: UTC + 3


Вы не можете начинать темы
Вы не можете отвечать на сообщения
Вы не можете редактировать свои сообщения
Вы не можете удалять свои сообщения
Вы не можете голосовать в опросах
Вы не можете прикреплять файлы к сообщениям
Вы не можете скачивать файлы