(Opera) Giacomo Puccini - Madama Butterfly (Magda Olivero, Renato Cioni - Rescigno 1961) 2013, FLAC (tracks) lossless


 

[Цитировать]

Giacomo Puccini - Madama Butterfly - Magda Olivero, Renato Cioni - Rescigno 1961
Жанр: Opera
Страна-производитель диска: EU
Год издания диска: 2013
Издатель (лейбл): Opera dOro
Номер по каталогу: OPD1484
Дата записи: 1961
Аудиокодек: FLAC
Тип рипа: tracks
Битрейт аудио: lossless
Продолжительность: 135'
Источник: prestoclassical
сайт-источник/ник/другое: prestoclassical
Наличие сканов в содержимом раздачи: нет
Треклист:
Giacomo Puccini: Madama Butterfly
01. Act I, "E soffitto e pareti" (Pinkerton, Goro)
02. Act I, "Questa è la cameriera" (Goro, Pinkerton, Suzuki, Sharpless)
03. Act I, "Dovunque al mondo" (Pinkerton, Sharpless)
04. Act I, "Ed è bella la sposa...Amore o grillo" (Sharpless, Goro, Pinkerton, Chorus)
05. Act I, "Ancora un passo or via" (Butterfly, Chorus, Sharpless, Pinkerton)
06. Act I, "Nessuno si confessa" (Butterfly, Chorus, Pinkerton, Sharpless, Goro)
07. Act I, "Che burletta la sfilata" (Pinkerton, Chorus, Butterfly, Goro, Sharpless)
08. Act I, "Vieni, amor mio!" (Pinkerton, Butterfly, Goro)
09. Act I, "Ieri son salita" (Butterfly , Goro, Commissioner, Chorus, Pinkerton, Sharpless, Bonze)
10. Act I, "Bimba, bimba, non piangere" (Pinkerton, Butterfly, Suzuki)
11. Act I, "Quest'obi pomposa...Vogliatemi bene" (Butterfly, Pinkerton)
12. Act II, "E Izaghi e Izanami" (Suzuki, Butterfly)
13. Act II, "Un bel dì vedremo" (Butterfly)
14. Act II, "C'è. Entrate" (Goro, Sharpless, Butterfly, Yamadori)
15. Act II, "Ora a noi" (Sharpless, Butterfly)
16. Act II, "Due cose potrei far" (Butterfly, Sharpless)
17. Act II, "Io scendo al piano" (Sharpless, Butterfly, Suzuki, Goro)
18. Act II, "Il cannone del porto!" (Suzuki, Butterfly)
19. Act II, "Scuoti quella fronda" (Butterfly, Suzuki)
20. Act II, "Or vienmi ad adornar" (Butterfly, Suzuki)
21. Act II, "Humming Chorus" (Chorus)
22. Act II, "Intermezzo" (Orchestra)2
23. Act II, "Già il sole!" (Suzuki, Butterfly)
24. Act II, "Zitta! Zitta! Non la destar" (Pinkteron, Suzuki, Sharpless)
25. Act II, "Lo so che alle sue pene" (Sharpless, Pinkerton, Suzuki)
26. Act II, "Addio fiorito asil" (Pinkerton, Sharpless, Kate)
27. Act II, "Suzuki, Suzuki! Dove sei?" (Butterfly, Suzuki, Sharpless, Kate)7
28. Act II, "Con onor muore" (Butterfly, Pinkerton)
Исполнители:
Magda Olivero (Butterfly)
Renato Cioni (Pinkerton)
Mario Zanasi (Sharpless)
Fernanda Cadoni (Suzuki)
Mariano Caruso (Goro)
Aldo Giannini (Lo zio Bonzo)
Teatro di San Carlo di Napoli, Nicola Rescigno

Лог проверки качества

foobar2000 1.2.2 / Замер динамического диапазона (DR) 1.1.1Дата отчёта: 2015-11-21 10:28:55
--------------------------------------------------------------------------------Анализ: Magda Olivero, Renato Cioni, Orchestra & Chorus of Teatro San Carlo / Puccini: Madama Butterfly--------------------------------------------------------------------------------
DR Пики RMS Продолжительность трека--------------------------------------------------------------------------------DR12 -5.00 дБ -21.62 дБ 2:15 ?-Madama Butterfly: Act I, 'E soffitto e pareti' (Pinkerton, Goro)DR11 -4.19 дБ -18.97 дБ 4:13 ?-Madama Butterfly: Act I, 'Questa è la cameriera' (Goro, Pinkerton, Suzuki, Sharpless)DR8 -3.52 дБ -14.92 дБ 2:50 ?-Madama Butterfly: Act I, 'Dovunque al mondo' (Pinkerton, Sharpless)DR8 -3.20 дБ -15.18 дБ 4:11 ?-Madama Butterfly: Act I, 'Ed è bella la sposa...Amore o grillo' (Sharpless, Goro, Pinkerton, Chorus)DR9 -3.75 дБ -17.64 дБ 4:43 ?-Madama Butterfly: Act I, 'Ancora un passo or via' (Butterfly, Chorus, Sharpless, Pinkerton)DR11 -2.94 дБ -20.17 дБ 2:30 ?-Madama Butterfly: Act I, 'Nessuno si confessa' (Butterfly, Chorus, Pinkerton, Sharpless, Goro)DR8 -4.03 дБ -17.01 дБ 2:00 ?-Madama Butterfly: Act I, 'Che burletta la sfilata' (Pinkerton, Chorus, Butterfly, Goro, Sharpless)DR12 -5.54 дБ -22.63 дБ 2:34 ?-Madama Butterfly: Act I, 'Vieni, amor mio!' (Pinkerton, Butterfly, Goro)DR11 -2.61 дБ -17.86 дБ 8:20 ?-Madama Butterfly: Act I, 'Ieri son salita' (Butterfly , Goro, Commissioner, Chorus, Pinkerton, Sharpless, Bonze)DR11 -4.25 дБ -20.70 дБ 3:48 ?-Madama Butterfly: Act I, 'Bimba, bimba, non piangere' (Pinkerton, Butterfly, Suzuki)DR8 -3.56 дБ -16.03 дБ 13:16 ?-Madama Butterfly: Act I, 'Quest'obi pomposa...Vogliatemi bene' (Butterfly, Pinkerton)DR11 -3.74 дБ -20.48 дБ 6:58 ?-Madama Butterfly: Act II, 'E Izaghi e Izanami' (Suzuki, Butterfly)DR9 -2.72 дБ -16.30 дБ 5:03 ?-Madama Butterfly: Act II, 'Un bel dì vedremo' (Butterfly)DR11 -3.18 дБ -18.71 дБ 9:09 ?-Madama Butterfly: Act II, 'C'è. Entrate' (Goro, Sharpless, Butterfly, Yamadori)DR12 -4.22 дБ -21.50 дБ 3:10 ?-Madama Butterfly: Act II, 'Ora a noi' (Sharpless, Butterfly)DR9 -3.79 дБ -17.24 дБ 7:04 ?-Madama Butterfly: Act II, 'Due cose potrei far' (Butterfly, Sharpless)DR8 -4.54 дБ -17.83 дБ 3:30 ?-Madama Butterfly: Act II, 'Io scendo al piano' (Sharpless, Butterfly, Suzuki, Goro)DR8 -3.09 дБ -15.61 дБ 2:47 ?-Madama Butterfly: Act II, 'Il cannone del porto!' (Suzuki, Butterfly)DR10 -3.81 дБ -18.30 дБ 4:51 ?-Madama Butterfly: Act II, 'Scuoti quella fronda' (Butterfly, Suzuki)DR11 -3.65 дБ -20.17 дБ 5:11 ?-Madama Butterfly: Act II, 'Or vienmi ad adornar' (Butterfly, Suzuki)DR10 -3.75 дБ -20.77 дБ 3:37 ?-Madama Butterfly: Act II, 'Humming Chorus' (Chorus)DR9 -2.17 дБ -15.78 дБ 7:19 ?-Madama Butterfly: Act II, 'Intermezzo' (Orchestra)DR12 -5.21 дБ -22.82 дБ 2:30 ?-Madama Butterfly: Act II, 'Già il sole!' (Suzuki, Butterfly)DR9 -3.29 дБ -18.05 дБ 2:09 ?-Madama Butterfly: Act II, 'Zitta! Zitta! Non la destar' (Pinkteron, Suzuki, Sharpless)DR7 -2.97 дБ -13.67 дБ 3:30 ?-Madama Butterfly: Act II, 'Lo so che alle sue pene' (Sharpless, Pinkerton, Suzuki)DR7 -3.70 дБ -15.31 дБ 2:50 ?-Madama Butterfly: Act II, 'Addio fiorito asil' (Pinkerton, Sharpless, Kate)DR9 -3.01 дБ -18.62 дБ 9:52 ?-Madama Butterfly: Act II, 'Suzuki, Suzuki! Dove sei?' (Butterfly, Suzuki, Sharpless, Kate)DR8 -3.24 дБ -14.86 дБ 5:08 ?-Madama Butterfly: Act II, 'Con onor muore' (Butterfly, Pinkerton)--------------------------------------------------------------------------------
Количество треков: 28Реальные значения DR: DR10
Частота: 44100 ГцКаналов: 2Разрядность: 16Битрейт: 474 кбит/сКодек: FLAC================================================================================



Показать сообщения:    

Текущее время: 10-Дек 02:15

Часовой пояс: UTC + 3


Вы не можете начинать темы
Вы не можете отвечать на сообщения
Вы не можете редактировать свои сообщения
Вы не можете удалять свои сообщения
Вы не можете голосовать в опросах
Вы не можете прикреплять файлы к сообщениям
Вы не можете скачивать файлы