(opera) Gaetano Donizetti - Lucie de Lammermoor (Lucia di Lammermoor, Лючия ди Ламмермур) (Natalie Dessay, Roberto Alagna, Ludovic Tezier - Evelino Pido, Opera de Lyon 2002) - 2009, FLAC (tracks+.cue) lossless


 

[Цитировать]

Gaetano Donizetti - Lucie de Lammermoor (Natalie Dessay, Roberto Alagna, Ludovic Tezier - Evelino Pido, Opera de Lyon 2002)
Жанр: opera
Страна-производитель диска: EU
Год издания диска: 2009
Издатель (лейбл): EMI CLASSICS
Дата записи: 23-28.01.2002
Аудиокодек: FLAC
Тип рипа: tracks+.cue
Битрейт аудио: lossless
Продолжительность: CD1 - 77.25 CD2 - 49.31
Источник: собственный рип
Наличие сканов в содержимом раздачи: да
Треклист:
CD 1
ACT ONE
1 Couronnez la crete des montagnes (Gilbert/Choeur) 4.27
2 Quel air sombre (Gilbert/Ashton) 3.33
3 D’un amour qui me brave (Ashton/Gilbert/Choeur) 4.02
4 A moi viens, ouvre tes ailes (Ashton/Choeur/Gilbert) 3.20
5 J’arrive le dernier au rendez-vous 5.58
6 Gilbert! - C’est moi, mademoiselle (Lucie/Gilbert) 2.11
7 Que n’avons-nous des ailes (Lucie) 7.07
8 C’est moi Lucie, j'ai voulu (Edgard/Lucie) 2.17
9 Sur la tombe de mon pere... Qu’une lettre en ma misere (Edgard/Lucie) 4.38
10 Qu’une lettre en ma misere (Lucie/Edgard) 4.54
ACT TWO
11 Ainsi tu viens de France? (Ashton/Gilbert) 4.02
12 Je t’attendais, approche (Ashton/Lucie) 5.33
13 Pleurant son absence, du fond de ma souffrance (Lucie/Ashton) 5.06
14 Entends-tu ces chants de fete? 3.10
15 Suivons I’amant qui nous conduit (Choeur/Arthur) 3.22
16 Eh bien, Lucie? (Arthur/Ashton/Lucie/Chceur/Edgard/Raymond) 4.02
17 J’ai pour moi mon droit (Tous/Choeur) 3.49
18 Loin de nous, j’ordonne (Ashton/Arthur/Chceur/Raymond/Edgard/Lucie) 2.38
19 Non, du serment tu trahis la foil Anatheme... (Tous/Choeur) 3.06
CD 2
ACT THREE
1 Entracte 0.49
2 Oui mon seigneur, a la petite porte (Gilbert/Ashton/Edgard) 1.36
3 Souviens-toi qu’en ce domaine (Ashton/Edgard) 2.58
4 J’aurai ton sang (Edgard/Ashton) 4.05
5 Elle a quitte ces lieux 1.19
6 Malheur! Malheur! (Raymond/Choeur) 4.31
7 Elle s’avance, helas, pauvre victime (Raymond/Lucie) 4.36
8 Ah! C’est I’hymne des noces (Lucie) 6.35
9 Ashton s’avance (Raymond/Lucie/Choeur/Ashton) 2.28
10 Je vais quitter la terre (Lucie/Ashton/Raymond/Choeur) 4.37
11 Tombes de mes aieux (Edgard) 7.43
12 Ravenswood, a ton attente (Chceur/Edgard/Raymond/Ashton) 9.12
Исполнители:
Gaetano Donizetti 1797-1848 Lucie de Lammermoor
Opera in three acts. French version of 1839 supervised by the composer.
Libretto: Salvatore Cammarano after Walter Scott. French adaptation by Alphonse Royer & Gustave Vaez Critical edition Ricordi, 2000.
Lucie Ashton NATALIE DESSAY
Edgard Ravenswood ROBERTO ALAGNA
Henri Ashton LUDOVIC TEZIER
Arthur Bucklaw MARC LAHO
Raymond NICOLAS CAVALLIER
Gilbert YVES SAELENS
Choeur et Orchestre de I’Opera National de Lyon
Alan Woodbridge chorus master
Julien Beaudiment flute solo
Irenе Kudela director of musical studies
Paolo Longo singing director
Evelino Pido
Recorded: 23-28.01.2002, Орerа National de Lyon

Лог создания рипа

Lucie de Lammermoor - Pido CD 1.log

Exact Audio Copy V1.1 from 23. June 2015
EAC extraction logfile from 20. November 2015, 20:26
Natalie Dessay, Roberto Alagna, Ludovic Tezier / Lucie de Lammermoor - Pido CD 1
Used drive : HL-DT-STDVDRAM GSA-H10N Adapter: 1 ID: 0
Read mode : Secure
Utilize accurate stream : Yes
Defeat audio cache : Yes
Make use of C2 pointers : No
Read offset correction : 667
Overread into Lead-In and Lead-Out : No
Fill up missing offset samples with silence : Yes
Delete leading and trailing silent blocks : No
Null samples used in CRC calculations : Yes
Used interface : Native Win32 interface for Win NT & 2000
Gap handling : Appended to previous track
Used output format : User Defined Encoder
Selected bitrate : 128 kBit/s
Quality : High
Add ID3 tag : No
Command line compressor : C:\Program Files (x86)\Exact Audio Copy\Flac\flac.exe
Additional command line options : -V -8 -T "Genre=%genre%" -T "Artist=%artist%" -T "Title=%title%" -T "Album=%albumtitle%" -T "Date=%year%" -T "Tracknumber=%tracknr%" -T "Comment=%comment%" %source%
TOC of the extracted CD
Track | Start | Length | Start sector | End sector
---------------------------------------------------------
1 | 0:00.00 | 4:25.23 | 0 | 19897
2 | 4:25.23 | 3:33.25 | 19898 | 35897
3 | 7:58.48 | 4:02.21 | 35898 | 54068
4 | 12:00.69 | 3:20.35 | 54069 | 69103
5 | 15:21.29 | 5:58.63 | 69104 | 96016
6 | 21:20.17 | 2:11.31 | 96017 | 105872
7 | 23:31.48 | 7:07.61 | 105873 | 137958
8 | 30:39.34 | 2:17.71 | 137959 | 148304
9 | 32:57.30 | 4:38.25 | 148305 | 169179
10 | 37:35.55 | 4:54.52 | 169180 | 191281
11 | 42:30.32 | 4:02.55 | 191282 | 209486
12 | 46:33.12 | 5:33.45 | 209487 | 234506
13 | 52:06.57 | 5:06.45 | 234507 | 257501
14 | 57:13.27 | 3:10.11 | 257502 | 271762
15 | 60:23.38 | 3:22.73 | 271763 | 286985
16 | 63:46.36 | 4:02.20 | 286986 | 305155
17 | 67:48.56 | 3:49.70 | 305156 | 322400
18 | 71:38.51 | 2:38.25 | 322401 | 334275
19 | 74:17.01 | 3:07.01 | 334276 | 348301
Track 1
Filename E:\Доницетти - Lucie de Lammermoor - Natalie Dessay, Roberto Alagna, Ludovic Tezier - Evelino Pido, Opera de Lyon 2002\Lucie de Lammermoor - Pido CD 1\01 Act 1-1 Couronnez la crete des montagnes.wav
Pre-gap length 0:00:02.00
Peak level 99.1 %
Extraction speed 2.7 X
Track quality 100.0 %
Test CRC 5F40E723
Copy CRC 5F40E723
Accurately ripped (confidence 1) [DEA1D6F1] (AR v2)
Copy OK
Track 2
Filename E:\Доницетти - Lucie de Lammermoor - Natalie Dessay, Roberto Alagna, Ludovic Tezier - Evelino Pido, Opera de Lyon 2002\Lucie de Lammermoor - Pido CD 1\02 Act 1-2 Quel air sombre.wav
Peak level 65.3 %
Extraction speed 2.8 X
Track quality 100.0 %
Test CRC 7E8D143A
Copy CRC 7E8D143A
Accurately ripped (confidence 1) [E804BAD8] (AR v2)
Copy OK
Track 3
Filename E:\Доницетти - Lucie de Lammermoor - Natalie Dessay, Roberto Alagna, Ludovic Tezier - Evelino Pido, Opera de Lyon 2002\Lucie de Lammermoor - Pido CD 1\03 Act 1-2 D'un amour qui me brave.wav
Peak level 72.5 %
Extraction speed 3.1 X
Track quality 100.0 %
Test CRC 46800DF9
Copy CRC 46800DF9
Accurately ripped (confidence 1) [FDCB2229] (AR v2)
Copy OK
Track 4
Filename E:\Доницетти - Lucie de Lammermoor - Natalie Dessay, Roberto Alagna, Ludovic Tezier - Evelino Pido, Opera de Lyon 2002\Lucie de Lammermoor - Pido CD 1\04 Act 1-2 A moi viens, ouvre tes ailes.wav
Peak level 85.3 %
Extraction speed 3.2 X
Track quality 100.0 %
Test CRC D6CC4549
Copy CRC D6CC4549
Accurately ripped (confidence 1) [01D7BF83] (AR v2)
Copy OK
Track 5
Filename E:\Доницетти - Lucie de Lammermoor - Natalie Dessay, Roberto Alagna, Ludovic Tezier - Evelino Pido, Opera de Lyon 2002\Lucie de Lammermoor - Pido CD 1\05 Act 1-3 J'arrive le dernier au rendez-vous.wav
Peak level 78.0 %
Extraction speed 3.7 X
Track quality 100.0 %
Test CRC 2AF87AEB
Copy CRC 2AF87AEB
Accurately ripped (confidence 1) [AA31919B] (AR v2)
Copy OK
Track 6
Filename E:\Доницетти - Lucie de Lammermoor - Natalie Dessay, Roberto Alagna, Ludovic Tezier - Evelino Pido, Opera de Lyon 2002\Lucie de Lammermoor - Pido CD 1\06 Act 1-4 Gilbert! - C'est moi, mademoiselle.wav
Peak level 42.5 %
Extraction speed 3.3 X
Track quality 100.0 %
Test CRC D2562F3C
Copy CRC D2562F3C
Accurately ripped (confidence 1) [CF14740A] (AR v2)
Copy OK
Track 7
Filename E:\Доницетти - Lucie de Lammermoor - Natalie Dessay, Roberto Alagna, Ludovic Tezier - Evelino Pido, Opera de Lyon 2002\Lucie de Lammermoor - Pido CD 1\07 Act 1-4 Que n'avons-nousdes ailes.wav
Peak level 81.9 %
Extraction speed 4.2 X
Track quality 100.0 %
Test CRC F1180662
Copy CRC F1180662
Accurately ripped (confidence 1) [999A1983] (AR v2)
Copy OK
Track 8
Filename E:\Доницетти - Lucie de Lammermoor - Natalie Dessay, Roberto Alagna, Ludovic Tezier - Evelino Pido, Opera de Lyon 2002\Lucie de Lammermoor - Pido CD 1\08 Act 1-5 C'est moi Lucie, j'ai voulu.wav
Peak level 57.5 %
Extraction speed 3.8 X
Track quality 100.0 %
Test CRC 8F1E46CE
Copy CRC 8F1E46CE
Accurately ripped (confidence 1) [EFCC047A] (AR v2)
Copy OK
Track 9
Filename E:\Доницетти - Lucie de Lammermoor - Natalie Dessay, Roberto Alagna, Ludovic Tezier - Evelino Pido, Opera de Lyon 2002\Lucie de Lammermoor - Pido CD 1\09 Act 1-5 Sur la tombe de mon pere, Qu'une lettre en am misere.wav
Peak level 63.4 %
Extraction speed 4.4 X
Track quality 100.0 %
Test CRC 10C0706E
Copy CRC 10C0706E
Accurately ripped (confidence 1) [E95F96ED] (AR v2)
Copy OK
Track 10
Filename E:\Доницетти - Lucie de Lammermoor - Natalie Dessay, Roberto Alagna, Ludovic Tezier - Evelino Pido, Opera de Lyon 2002\Lucie de Lammermoor - Pido CD 1\10 Act 1-5 Qu'une lettre en ma misere.wav
Peak level 78.4 %
Extraction speed 4.5 X
Track quality 100.0 %
Test CRC DB446699
Copy CRC DB446699
Accurately ripped (confidence 1) [DAFCFCCE] (AR v2)
Copy OK
Track 11
Filename E:\Доницетти - Lucie de Lammermoor - Natalie Dessay, Roberto Alagna, Ludovic Tezier - Evelino Pido, Opera de Lyon 2002\Lucie de Lammermoor - Pido CD 1\11 Act 2-6 Ainsi tu viens de France.wav
Peak level 52.9 %
Extraction speed 4.7 X
Track quality 100.0 %
Test CRC 47EF2350
Copy CRC 47EF2350
Accurately ripped (confidence 1) [C1E96722] (AR v2)
Copy OK
Track 12
Filename E:\Доницетти - Lucie de Lammermoor - Natalie Dessay, Roberto Alagna, Ludovic Tezier - Evelino Pido, Opera de Lyon 2002\Lucie de Lammermoor - Pido CD 1\12 Act 2-6 Je t'attendais, approche.wav
Peak level 79.8 %
Extraction speed 5.0 X
Track quality 100.0 %
Test CRC 31A49EE2
Copy CRC 31A49EE2
Accurately ripped (confidence 1) [6EEF194F] (AR v2)
Copy OK
Track 13
Filename E:\Доницетти - Lucie de Lammermoor - Natalie Dessay, Roberto Alagna, Ludovic Tezier - Evelino Pido, Opera de Lyon 2002\Lucie de Lammermoor - Pido CD 1\13 Act 2-6 Pleurant son absence, du fond de ma souffrance.wav
Peak level 53.2 %
Extraction speed 5.1 X
Track quality 100.0 %
Test CRC 29B105B1
Copy CRC 29B105B1
Accurately ripped (confidence 1) [88A02374] (AR v2)
Copy OK
Track 14
Filename E:\Доницетти - Lucie de Lammermoor - Natalie Dessay, Roberto Alagna, Ludovic Tezier - Evelino Pido, Opera de Lyon 2002\Lucie de Lammermoor - Pido CD 1\14 Act 2-6 Entends-tu ces chants de fete.wav
Peak level 73.2 %
Extraction speed 4.9 X
Track quality 100.0 %
Test CRC DCE130D7
Copy CRC DCE130D7
Accurately ripped (confidence 1) [AB463314] (AR v2)
Copy OK
Track 15
Filename E:\Доницетти - Lucie de Lammermoor - Natalie Dessay, Roberto Alagna, Ludovic Tezier - Evelino Pido, Opera de Lyon 2002\Lucie de Lammermoor - Pido CD 1\15 Act 2-7 Suivons l'amant qui nous conduit.wav
Peak level 79.0 %
Extraction speed 5.1 X
Track quality 100.0 %
Test CRC F2235F11
Copy CRC F2235F11
Accurately ripped (confidence 1) [70B7DCA3] (AR v2)
Copy OK
Track 16
Filename E:\Доницетти - Lucie de Lammermoor - Natalie Dessay, Roberto Alagna, Ludovic Tezier - Evelino Pido, Opera de Lyon 2002\Lucie de Lammermoor - Pido CD 1\16 Act 2-8 Eh bien, Lucie.wav
Peak level 62.8 %
Extraction speed 5.2 X
Track quality 100.0 %
Test CRC 5FEFFEB6
Copy CRC 5FEFFEB6
Accurately ripped (confidence 1) [C46D7200] (AR v2)
Copy OK
Track 17
Filename E:\Доницетти - Lucie de Lammermoor - Natalie Dessay, Roberto Alagna, Ludovic Tezier - Evelino Pido, Opera de Lyon 2002\Lucie de Lammermoor - Pido CD 1\17 Act2-8 J'ai pour moi mon droit.wav
Peak level 63.2 %
Extraction speed 5.3 X
Track quality 100.0 %
Test CRC B9EEAAA7
Copy CRC B9EEAAA7
Accurately ripped (confidence 1) [B2303525] (AR v2)
Copy OK
Track 18
Filename E:\Доницетти - Lucie de Lammermoor - Natalie Dessay, Roberto Alagna, Ludovic Tezier - Evelino Pido, Opera de Lyon 2002\Lucie de Lammermoor - Pido CD 1\18 Act 2-9 Loin de nous, j'ordonne.wav
Peak level 51.8 %
Extraction speed 4.2 X
Track quality 99.9 %
Test CRC FB0CD367
Copy CRC FB0CD367
Accurately ripped (confidence 1) [B8D29C65] (AR v2)
Copy OK
Track 19
Filename E:\Доницетти - Lucie de Lammermoor - Natalie Dessay, Roberto Alagna, Ludovic Tezier - Evelino Pido, Opera de Lyon 2002\Lucie de Lammermoor - Pido CD 1\19 Act 2-9 Non, du serment tu trahis la foi!.wav
Peak level 85.0 %
Extraction speed 5.5 X
Track quality 100.0 %
Test CRC A7BB43E8
Copy CRC A7BB43E8
Accurately ripped (confidence 1) [E4D32DBC] (AR v2)
Copy OK
All tracks accurately ripped
No errors occurred
End of status report
==== Log checksum FC86DCC6CC7D85D1780EAE6B7633EA852CF28870A04C06F884275E98F734D1DB ====

Lucie de Lammermoor - Pido CD 2.log

Exact Audio Copy V1.1 from 23. June 2015
EAC extraction logfile from 20. November 2015, 21:08
Natalie Dessay, Roberto Alagna, Ludovic Tezier / Lucie de Lammermoor - Pido CD 2
Used drive : HL-DT-STDVDRAM GSA-H10N Adapter: 1 ID: 0
Read mode : Secure
Utilize accurate stream : Yes
Defeat audio cache : Yes
Make use of C2 pointers : No
Read offset correction : 667
Overread into Lead-In and Lead-Out : No
Fill up missing offset samples with silence : Yes
Delete leading and trailing silent blocks : No
Null samples used in CRC calculations : Yes
Used interface : Native Win32 interface for Win NT & 2000
Gap handling : Appended to previous track
Used output format : User Defined Encoder
Selected bitrate : 128 kBit/s
Quality : High
Add ID3 tag : No
Command line compressor : C:\Program Files (x86)\Exact Audio Copy\Flac\flac.exe
Additional command line options : -V -8 -T "Genre=%genre%" -T "Artist=%artist%" -T "Title=%title%" -T "Album=%albumtitle%" -T "Date=%year%" -T "Tracknumber=%tracknr%" -T "Comment=%comment%" %source%
TOC of the extracted CD
Track | Start | Length | Start sector | End sector
---------------------------------------------------------
1 | 0:00.00 | 0:46.74 | 0 | 3523
2 | 0:46.74 | 1:36.50 | 3524 | 10773
3 | 2:23.49 | 2:58.38 | 10774 | 24161
4 | 5:22.12 | 4:05.30 | 24162 | 42566
5 | 9:27.42 | 1:19.17 | 42567 | 48508
6 | 10:46.59 | 4:31.18 | 48509 | 68851
7 | 15:18.02 | 3:36.71 | 68852 | 85122
8 | 18:54.73 | 6:35.56 | 85123 | 114803
9 | 25:30.54 | 2:28.03 | 114804 | 125906
10 | 27:58.57 | 4:37.60 | 125907 | 146741
11 | 32:36.42 | 7:43.42 | 146742 | 181508
12 | 40:20.09 | 9:12.10 | 181509 | 222918
Track 1
Filename E:\Доницетти - Lucie de Lammermoor - Natalie Dessay, Roberto Alagna, Ludovic Tezier - Evelino Pido, Opera de Lyon 2002\Lucie de Lammermoor - Pido CD 2\01 Act 3-10 Entracte.wav
Pre-gap length 0:00:02.00
Peak level 67.3 %
Extraction speed 2.5 X
Track quality 100.0 %
Test CRC 641ABBB7
Copy CRC 641ABBB7
Accurately ripped (confidence 2) [76AACD14] (AR v2)
Copy OK
Track 2
Filename E:\Доницетти - Lucie de Lammermoor - Natalie Dessay, Roberto Alagna, Ludovic Tezier - Evelino Pido, Opera de Lyon 2002\Lucie de Lammermoor - Pido CD 2\02 Act 3-11 Oui mon seigneur, a la petite porte.wav
Peak level 52.5 %
Extraction speed 3.7 X
Track quality 100.0 %
Test CRC 413289DA
Copy CRC 413289DA
Accurately ripped (confidence 2) [5343BE88] (AR v2)
Copy OK
Track 3
Filename E:\Доницетти - Lucie de Lammermoor - Natalie Dessay, Roberto Alagna, Ludovic Tezier - Evelino Pido, Opera de Lyon 2002\Lucie de Lammermoor - Pido CD 2\03 Act 3-11 Souviens-tu qu'ence domaine.wav
Peak level 69.0 %
Extraction speed 4.4 X
Track quality 100.0 %
Test CRC C73C28C4
Copy CRC C73C28C4
Accurately ripped (confidence 2) [EB3A6CD8] (AR v2)
Copy OK
Track 4
Filename E:\Доницетти - Lucie de Lammermoor - Natalie Dessay, Roberto Alagna, Ludovic Tezier - Evelino Pido, Opera de Lyon 2002\Lucie de Lammermoor - Pido CD 2\04 Act 3-11 J'aurai ton sang.wav
Peak level 79.4 %
Extraction speed 5.2 X
Track quality 100.0 %
Test CRC 79FCFE4D
Copy CRC 79FCFE4D
Accurately ripped (confidence 2) [0C6D404E] (AR v2)
Copy OK
Track 5
Filename E:\Доницетти - Lucie de Lammermoor - Natalie Dessay, Roberto Alagna, Ludovic Tezier - Evelino Pido, Opera de Lyon 2002\Lucie de Lammermoor - Pido CD 2\05 Act 3-12 Elle a quitte ces lieux.wav
Peak level 81.3 %
Extraction speed 4.1 X
Track quality 100.0 %
Test CRC D83ED39D
Copy CRC D83ED39D
Accurately ripped (confidence 2) [1999AB92] (AR v2)
Copy OK
Track 6
Filename E:\Доницетти - Lucie de Lammermoor - Natalie Dessay, Roberto Alagna, Ludovic Tezier - Evelino Pido, Opera de Lyon 2002\Lucie de Lammermoor - Pido CD 2\06 Act 3-13 Malheur! Malheur!.wav
Peak level 85.1 %
Extraction speed 5.1 X
Track quality 99.9 %
Test CRC F0BAC475
Copy CRC F0BAC475
Accurately ripped (confidence 2) [272719EA] (AR v2)
Copy OK
Track 7
Filename E:\Доницетти - Lucie de Lammermoor - Natalie Dessay, Roberto Alagna, Ludovic Tezier - Evelino Pido, Opera de Lyon 2002\Lucie de Lammermoor - Pido CD 2\07 Act 3-14 Elle s'avance, helas, pauvre victime.wav
Peak level 72.8 %
Extraction speed 6.0 X
Track quality 100.0 %
Test CRC D24B44D4
Copy CRC D24B44D4
Accurately ripped (confidence 2) [DD68F628] (AR v2)
Copy OK
Track 8
Filename E:\Доницетти - Lucie de Lammermoor - Natalie Dessay, Roberto Alagna, Ludovic Tezier - Evelino Pido, Opera de Lyon 2002\Lucie de Lammermoor - Pido CD 2\08 Act 3-14 Ah! C'est l'hymne des noces.wav
Peak level 75.7 %
Extraction speed 6.3 X
Track quality 99.9 %
Test CRC 4584D756
Copy CRC 4584D756
Accurately ripped (confidence 2) [053FE465] (AR v2)
Copy OK
Track 9
Filename E:\Доницетти - Lucie de Lammermoor - Natalie Dessay, Roberto Alagna, Ludovic Tezier - Evelino Pido, Opera de Lyon 2002\Lucie de Lammermoor - Pido CD 2\09 Act 3-14 Ashton s'avance.wav
Peak level 88.0 %
Extraction speed 5.2 X
Track quality 99.9 %
Test CRC D3C9FB17
Copy CRC D3C9FB17
Accurately ripped (confidence 2) [3A1D4C59] (AR v2)
Copy OK
Track 10
Filename E:\Доницетти - Lucie de Lammermoor - Natalie Dessay, Roberto Alagna, Ludovic Tezier - Evelino Pido, Opera de Lyon 2002\Lucie de Lammermoor - Pido CD 2\10 Act 3-14 Je vais quitter la terre.wav
Peak level 88.2 %
Extraction speed 7.2 X
Track quality 100.0 %
Test CRC 7316748C
Copy CRC 7316748C
Accurately ripped (confidence 2) [748D98DB] (AR v2)
Copy OK
Track 11
Filename E:\Доницетти - Lucie de Lammermoor - Natalie Dessay, Roberto Alagna, Ludovic Tezier - Evelino Pido, Opera de Lyon 2002\Lucie de Lammermoor - Pido CD 2\11 Act 3-15 Tombes de mes aieux.wav
Peak level 50.2 %
Extraction speed 8.2 X
Track quality 100.0 %
Test CRC F6237C07
Copy CRC F6237C07
Accurately ripped (confidence 2) [4766B841] (AR v2)
Copy OK
Track 12
Filename E:\Доницетти - Lucie de Lammermoor - Natalie Dessay, Roberto Alagna, Ludovic Tezier - Evelino Pido, Opera de Lyon 2002\Lucie de Lammermoor - Pido CD 2\12 Act 3-15 Ravenswood, a ton attente.wav
Peak level 96.0 %
Extraction speed 8.3 X
Track quality 99.9 %
Test CRC E0BA5DAC
Copy CRC E0BA5DAC
Accurately ripped (confidence 2) [AC96AE48] (AR v2)
Copy OK
All tracks accurately ripped
No errors occurred
End of status report
==== Log checksum 28789B479D239AAB81727C377C68F94702DF56804FA69A05CC622E1E784010CD ====

Содержание индексной карты (.CUE)

Lucie de Lammermoor - Pido CD 1.cue

REM GENRE Classical
REM DISCID 14122413
REM COMMENT "ExactAudioCopy v1.1"
PERFORMER "Natalie Dessay, Roberto Alagna, Ludovic Tezier"
TITLE "Lucie de Lammermoor - Pido CD 1"
FILE "01 Act 1-1 Couronnez la crete des montagnes.wav" WAVE
TRACK 01 AUDIO
TITLE "Act 1:1 Couronnez la crete des montagnes"
PERFORMER "Natalie Dessay, Roberto Alagna, Ludovic Tezier"
INDEX 01 00:00:00
FILE "02 Act 1-2 Quel air sombre.wav" WAVE
TRACK 02 AUDIO
TITLE "Act 1:2 Quel air sombre"
PERFORMER "Natalie Dessay, Roberto Alagna, Ludovic Tezier"
INDEX 01 00:00:00
FILE "03 Act 1-2 D'un amour qui me brave.wav" WAVE
TRACK 03 AUDIO
TITLE "Act 1:2 D'un amour qui me brave"
PERFORMER "Natalie Dessay, Roberto Alagna, Ludovic Tezier"
INDEX 01 00:00:00
FILE "04 Act 1-2 A moi viens, ouvre tes ailes.wav" WAVE
TRACK 04 AUDIO
TITLE "Act 1:2 A moi viens, ouvre tes ailes"
PERFORMER "Natalie Dessay, Roberto Alagna, Ludovic Tezier"
INDEX 01 00:00:00
FILE "05 Act 1-3 J'arrive le dernier au rendez-vous.wav" WAVE
TRACK 05 AUDIO
TITLE "Act 1:3 J'arrive le dernier au rendez-vous"
PERFORMER "Natalie Dessay, Roberto Alagna, Ludovic Tezier"
INDEX 01 00:00:00
FILE "06 Act 1-4 Gilbert! - C'est moi, mademoiselle.wav" WAVE
TRACK 06 AUDIO
TITLE "Act 1:4 Gilbert! - C'est moi, mademoiselle"
PERFORMER "Natalie Dessay, Roberto Alagna, Ludovic Tezier"
INDEX 01 00:00:00
FILE "07 Act 1-4 Que n'avons-nousdes ailes.wav" WAVE
TRACK 07 AUDIO
TITLE "Act 1:4 Que n'avons-nousdes ailes"
PERFORMER "Natalie Dessay, Roberto Alagna, Ludovic Tezier"
INDEX 01 00:00:00
FILE "08 Act 1-5 C'est moi Lucie, j'ai voulu.wav" WAVE
TRACK 08 AUDIO
TITLE "Act 1:5 C'est moi Lucie, j'ai voulu"
PERFORMER "Natalie Dessay, Roberto Alagna, Ludovic Tezier"
INDEX 01 00:00:00
FILE "09 Act 1-5 Sur la tombe de mon pere, Qu'une lettre en am misere.wav" WAVE
TRACK 09 AUDIO
TITLE "Act 1:5 Sur la tombe de mon pere, Qu'une lettre en am misere"
PERFORMER "Natalie Dessay, Roberto Alagna, Ludovic Tezier"
INDEX 01 00:00:00
FILE "10 Act 1-5 Qu'une lettre en ma misere.wav" WAVE
TRACK 10 AUDIO
TITLE "Act 1:5 Qu'une lettre en ma misere"
PERFORMER "Natalie Dessay, Roberto Alagna, Ludovic Tezier"
INDEX 01 00:00:00
FILE "11 Act 2-6 Ainsi tu viens de France.wav" WAVE
TRACK 11 AUDIO
TITLE "Act 2:6 Ainsi tu viens de France?"
PERFORMER "Natalie Dessay, Roberto Alagna, Ludovic Tezier"
INDEX 01 00:00:00
FILE "12 Act 2-6 Je t'attendais, approche.wav" WAVE
TRACK 12 AUDIO
TITLE "Act 2:6 Je t'attendais, approche"
PERFORMER "Natalie Dessay, Roberto Alagna, Ludovic Tezier"
INDEX 01 00:00:00
FILE "13 Act 2-6 Pleurant son absence, du fond de ma souffrance.wav" WAVE
TRACK 13 AUDIO
TITLE "Act 2:6 Pleurant son absence, du fond de ma souffrance"
PERFORMER "Natalie Dessay, Roberto Alagna, Ludovic Tezier"
INDEX 01 00:00:00
FILE "14 Act 2-6 Entends-tu ces chants de fete.wav" WAVE
TRACK 14 AUDIO
TITLE "Act 2:6 Entends-tu ces chants de fete?"
PERFORMER "Natalie Dessay, Roberto Alagna, Ludovic Tezier"
INDEX 01 00:00:00
FILE "15 Act 2-7 Suivons l'amant qui nous conduit.wav" WAVE
TRACK 15 AUDIO
TITLE "Act 2:7 Suivons l'amant qui nous conduit"
PERFORMER "Natalie Dessay, Roberto Alagna, Ludovic Tezier"
INDEX 01 00:00:00
FILE "16 Act 2-8 Eh bien, Lucie.wav" WAVE
TRACK 16 AUDIO
TITLE "Act 2:8 Eh bien, Lucie?"
PERFORMER "Natalie Dessay, Roberto Alagna, Ludovic Tezier"
INDEX 01 00:00:00
FILE "17 Act2-8 J'ai pour moi mon droit.wav" WAVE
TRACK 17 AUDIO
TITLE "Act2:8 J'ai pour moi mon droit"
PERFORMER "Natalie Dessay, Roberto Alagna, Ludovic Tezier"
INDEX 01 00:00:00
FILE "18 Act 2-9 Loin de nous, j'ordonne.wav" WAVE
TRACK 18 AUDIO
TITLE "Act 2:9 Loin de nous, j'ordonne"
PERFORMER "Natalie Dessay, Roberto Alagna, Ludovic Tezier"
INDEX 01 00:00:00
FILE "19 Act 2-9 Non, du serment tu trahis la foi!.wav" WAVE
TRACK 19 AUDIO
TITLE "Act 2:9 Non, du serment tu trahis la foi!"
PERFORMER "Natalie Dessay, Roberto Alagna, Ludovic Tezier"
INDEX 01 00:00:00

Lucie de Lammermoor - Pido CD 2.cue

REM GENRE Opera
REM DATE 2002
REM DISCID 980B9C0C
REM COMMENT "ExactAudioCopy v1.1"
PERFORMER "Natalie Dessay, Roberto Alagna, Ludovic Tezier"
TITLE "Lucie de Lammermoor - Pido CD 2"
FILE "01 Act 3-10 Entracte.wav" WAVE
TRACK 01 AUDIO
TITLE "Act 3:10 Entracte"
PERFORMER "Natalie Dessay, Roberto Alagna, Ludovic Tezier"
INDEX 01 00:00:00
FILE "02 Act 3-11 Oui mon seigneur, a la petite porte.wav" WAVE
TRACK 02 AUDIO
TITLE "Act 3:11 Oui mon seigneur, a la petite porte"
PERFORMER "Natalie Dessay, Roberto Alagna, Ludovic Tezier"
INDEX 01 00:00:00
FILE "03 Act 3-11 Souviens-tu qu'ence domaine.wav" WAVE
TRACK 03 AUDIO
TITLE "Act 3:11 Souviens-tu qu'ence domaine"
PERFORMER "Natalie Dessay, Roberto Alagna, Ludovic Tezier"
INDEX 01 00:00:00
FILE "04 Act 3-11 J'aurai ton sang.wav" WAVE
TRACK 04 AUDIO
TITLE "Act 3:11 J'aurai ton sang"
PERFORMER "Natalie Dessay, Roberto Alagna, Ludovic Tezier"
INDEX 01 00:00:00
FILE "05 Act 3-12 Elle a quitte ces lieux.wav" WAVE
TRACK 05 AUDIO
TITLE "Act 3:12 Elle a quitte ces lieux"
PERFORMER "Natalie Dessay, Roberto Alagna, Ludovic Tezier"
INDEX 01 00:00:00
FILE "06 Act 3-13 Malheur! Malheur!.wav" WAVE
TRACK 06 AUDIO
TITLE "Act 3:13 Malheur! Malheur!"
PERFORMER "Natalie Dessay, Roberto Alagna, Ludovic Tezier"
INDEX 01 00:00:00
FILE "07 Act 3-14 Elle s'avance, helas, pauvre victime.wav" WAVE
TRACK 07 AUDIO
TITLE "Act 3:14 Elle s'avance, helas, pauvre victime"
PERFORMER "Natalie Dessay, Roberto Alagna, Ludovic Tezier"
INDEX 01 00:00:00
FILE "08 Act 3-14 Ah! C'est l'hymne des noces.wav" WAVE
TRACK 08 AUDIO
TITLE "Act 3:14 Ah! C'est l'hymne des noces"
PERFORMER "Natalie Dessay, Roberto Alagna, Ludovic Tezier"
INDEX 01 00:00:00
FILE "09 Act 3-14 Ashton s'avance.wav" WAVE
TRACK 09 AUDIO
TITLE "Act 3:14 Ashton s'avance"
PERFORMER "Natalie Dessay, Roberto Alagna, Ludovic Tezier"
INDEX 01 00:00:00
FILE "10 Act 3-14 Je vais quitter la terre.wav" WAVE
TRACK 10 AUDIO
TITLE "Act 3:14 Je vais quitter la terre"
PERFORMER "Natalie Dessay, Roberto Alagna, Ludovic Tezier"
INDEX 01 00:00:00
FILE "11 Act 3-15 Tombes de mes aieux.wav" WAVE
TRACK 11 AUDIO
TITLE "Act 3:15 Tombes de mes aieux"
PERFORMER "Natalie Dessay, Roberto Alagna, Ludovic Tezier"
INDEX 01 00:00:00
FILE "12 Act 3-15 Ravenswood, a ton attente.wav" WAVE
TRACK 12 AUDIO
TITLE "Act 3:15 Ravenswood, a ton attente"
PERFORMER "Natalie Dessay, Roberto Alagna, Ludovic Tezier"
INDEX 01 00:00:00



Показать сообщения:    

Текущее время: 03-Дек 09:47

Часовой пояс: UTC + 3


Вы не можете начинать темы
Вы не можете отвечать на сообщения
Вы не можете редактировать свои сообщения
Вы не можете удалять свои сообщения
Вы не можете голосовать в опросах
Вы не можете прикреплять файлы к сообщениям
Вы не можете скачивать файлы