(opera) Jules Massenet - Manon (Gheorghiu, Alagna, Patriarco, Van Dam - Pappano - 2010, FLAC (tracks+.cue) lossless


 

[Цитировать]

Jules Massenet - Manon - Angela Gheorghiu, Roberto Alagna, Earle Patriarco, Jose Van Dam - Antonio Pappano 1999
Жанр: opera
Страна-производитель диска: EU
Год издания диска: 2010
Издатель (лейбл): EMI CLASSICS
Дата записи: 23.IV-9.V.1999
Аудиокодек: FLAC
Тип рипа: tracks+.cue
Битрейт аудио: lossless
Продолжительность: CD1 67,46 CD2 55,06 CD3 40,17
Источник: собственный рип
Наличие сканов в содержимом раздачи: да

Треклист

1. Prelude
2. Holа! He! Monsieur l'Hotelier? (1. Akt)
3. Hors-d'oeuvres de choix
4. Et mais, voilа dejа la ribamelle des bons bourgeois!
5. Allez а l'auberge voisine
6. Oh! ma coiffure! Oh! ma toilette!
7. Voyez! cette jeune fille!
8. Je suis encor tout etourdie
9. Partez! on sonne!
10. Hotelier de malheur!
11. Il vous parlez, Manon?
12. Regardez-moi bien dans les yeux
13. Restons ici, puis-qu'il le faut!
14. Voyons, Manon, plus de chimиres
15. Quelqu'un! vite, а mon banc de pierre
16. Mademoiselle!...Eh quoi?
17. Ah! parlez-moi!
18. Par aventure, peut-etre a vous-nous mieux
19. Nous vivrons а Paris tout les deux
20. Revenez, Guillot, revenez!
21. Plus un sous! Le tour est tres plaisant
22. Prelude (2. Akt)
23. Manon! Avez-vous peur que mon visage frole
24. Il ne te suffit pas alors de nous aimer?
25. Qui donc se permet un pareil tapage?
26. Mademoiselle est ma cousine
27. Je venais d'ecrire а mon pere
28. C'est parfait, on ne peut mieux dire
29. Que nous veut on?
30. Allons! il le faut!
31. Adieu, notre petite table
32. C'est lui! Que ma paleur ne me trahisse pas!
33. En fermant les yeux je vois lа bas
34. Oh! Ciel! Dejа! Quelqu'un il ne faut pas de trouble-fete
Disk: 2
1. Entracte - Menuet (3. Akt)
2. Voyez mules а fleurettes...
3. La charmante promenade!
4. Choisir! et pourquoi?
5. O Rosalinde, il me faudrait gravir le Pinde
6. Bonjour! Poussette!... Dig et dig et don!
7. Voici elegantes! Les belles indolentes
8. Je marche sur tous les chemins
9. Obeissons, quand leur voix appelle - Gavotte
10. Et maintenant restez seul un instant
11. Je ne trompe me pas, Monsieur de Bretigny
12. Oui, c'est Manon!
13. Faut-il donc savoir tant de choses
14. Un mot encore!
15. Repondez-moi, Guillot!
16. Voici l'Opera!
17. Premiere Entree
18. Deuxieme Entree
19. Troisieme Entree
20. Quatrieme Entree
21. C'est fete au Cours la Reine!
22. Quelle eloquence
23. Bravo mon cher, succes complet
24. Epouse quelque brave fille
25. Je suis seul!...
26. Ah! fuyez, douce image
27. Monsieur je veux parler а l'abbe Des Grieux
28. Toi! Vous!... Oui, C'est moi!
29. N'est-ce plus ma main
Disk: 3
1. Faites vos jeux, Messieurs! (4. Akt)
2. Je vous jure que l'argent m'appartient
3. C'est ici que celle que j'aime
4. Bravo, mon cher! Merci!
5. Mais donc nous arrive et fait tout ce tapage?
6. Manon, Sphinx etonnant, veritable sirene!
7. Un mot, s'il vous plait, Chevalier!
8. Faites vos jeux, Messierus. Ce bruit de l'or
9. Au jeu! Permettez-moi jouer sur parole
10. Ouvrez! au nom du Roi!
11. Oui, je viens t'arracher а la honte
12. Manon! Pauvre Manon!
13. Capitaine, o gue, Es-tu fatigue
14. Ah! Des Grieux! O Manon! Tu pleures!
15. Qu'ai-je а te pardonner
16. Nous reparlerons du passe
17. N'est-ce plus ma main que cette main presse?

Исполнители

Jules Massenet 1842-1912 Manon
Opera-Comique in five acts and six tableaux
Libretto: Henri Meilhac & Philippe Gitle
Manon - ANGELA GHEORGHIU
Le Chevalier Des Grieux - ROBERTO ALAGNA
Lescaut - EARLE PATRIARCO
Le Comte des Grieux - JOSE VAN DAM
Guillot de Morfontaine - GILLES RAGON
De Bretigny - NICOLAS RIVENQ
Poussette - ANNA MARIA PANZARELLA
Javotte - SOPHIE KOCH
Rosette - SUSANNE SCHIMMACK
L'hotelier - NICOLAS CAVALLIER
Premier garde/Premier voyageur/Premier cuisinier - MARC COULON
Deuxieme garde/Deuxeme voyageur/Un marchand d'elixir - ERNEST FRERE
Troisieme voyageur/Un marchand - HANS LEETHER
Un marchand de chansons - GERARD LAVALLE
Un porteur - JULIEN WEISBERGER
Une vieille dame - MARIELLA MOESKOPS
Premire voyageuse/Un marchand - MARYVONNE DEPREZ
Deuxieme voyageuse - LIEVE JACOBS
Troisieme voyageuse - ROSA BRANDSO
Quatrieme voyageuse - NATHALIE PERN
La servante - GHILA KOVACS
Le portier du seminaire/Un voix dans le fond/Un archer - YANN-ARMEL QUEMENER
Les croupiers - LUC DE MEULENAERE, YVES GOFFINET, YANN-ARMEL QUEMENER
Premier joueur/Le joueur poursuivant Lescaut/Le sergeant - BERNARD VILLIERS
Deuxieme joueur/Une voix policier - PASCAL MACOU
Les archers - LUC DE MEULENAIRE, YVES GOFFINET, YANN-ARMEL QUEMENER, PASCAL MACOU
Orchestra Symphonique et Choeurs de la Monnaie
chorus master Renato Balsadonn
Antonio Pappano
Recorded: 23.IV-9.V.1999, Cirque Royal, Brussels

Лог создания рипа

Gheorghiu, Alagna, Patriarco, van Dam - Массне - Manon - Antonio Pappano 1999 CD 1.log

Exact Audio Copy V1.0 beta 3 from 29. August 2011
EAC extraction logfile from 9. September 2015, 19:04
Angela Gheorghiu / Massenet: Manon (Disc 1)
Used drive : hp DVDRAM GT50N Adapter: 0 ID: 0
Read mode : Secure
Utilize accurate stream : Yes
Defeat audio cache : Yes
Make use of C2 pointers : No
Read offset correction : 103
Overread into Lead-In and Lead-Out : No
Fill up missing offset samples with silence : Yes
Delete leading and trailing silent blocks : No
Null samples used in CRC calculations : Yes
Used interface : Native Win32 interface for Win NT & 2000
Gap handling : Appended to previous track
Used output format : User Defined Encoder
Selected bitrate : 128 kBit/s
Quality : High
Add ID3 tag : No
Command line compressor : C:\Program Files\Exact Audio Copy\Flac\flac.exe
Additional command line options : -V -8 -T "Genre=%genre%" -T "Artist=%artist%" -T "Title=%title%" -T "Album=%albumtitle%" -T "Date=%year%" -T "Tracknumber=%tracknr%" -T "Comment=%comment%" %source%
TOC of the extracted CD
Track | Start | Length | Start sector | End sector
---------------------------------------------------------
1 | 0:00.00 | 3:58.62 | 0 | 17911
2 | 3:58.62 | 2:24.60 | 17912 | 28771
3 | 6:23.47 | 1:57.23 | 28772 | 37569
4 | 8:20.70 | 1:36.41 | 37570 | 44810
5 | 9:57.36 | 1:08.09 | 44811 | 49919
6 | 11:05.45 | 1:17.22 | 49920 | 55716
7 | 12:22.67 | 1:19.63 | 55717 | 61704
8 | 13:42.55 | 3:19.60 | 61705 | 76689
9 | 17:02.40 | 1:48.67 | 76690 | 84856
10 | 18:51.32 | 2:39.65 | 84857 | 96846
11 | 21:31.22 | 0:50.45 | 96847 | 100641
12 | 22:21.67 | 2:36.40 | 100642 | 112381
13 | 24:58.32 | 1:39.34 | 112382 | 119840
14 | 26:37.66 | 1:59.29 | 119841 | 128794
15 | 28:37.20 | 1:55.37 | 128795 | 137456
16 | 30:32.57 | 2:11.50 | 137457 | 147331
17 | 32:44.32 | 2:13.45 | 147332 | 157351
18 | 34:58.02 | 0:41.35 | 157352 | 160461
19 | 35:39.37 | 1:43.10 | 160462 | 168196
20 | 37:22.47 | 0:55.08 | 168197 | 172329
21 | 38:17.55 | 2:53.30 | 172330 | 185334
22 | 41:11.10 | 1:45.27 | 185335 | 193236
23 | 42:56.37 | 3:38.60 | 193237 | 209646
24 | 46:35.22 | 0:47.48 | 209647 | 213219
25 | 47:22.70 | 2:54.05 | 213220 | 226274
26 | 50:17.00 | 1:10.62 | 226275 | 231586
27 | 51:27.62 | 3:08.73 | 231587 | 245759
28 | 54:36.60 | 1:41.00 | 245760 | 253334
29 | 56:17.60 | 0:50.35 | 253335 | 257119
30 | 57:08.20 | 1:52.00 | 257120 | 265519
31 | 59:00.20 | 2:09.50 | 265520 | 275244
32 | 61:09.70 | 1:46.32 | 275245 | 283226
33 | 62:56.27 | 3:07.41 | 283227 | 297292
34 | 66:03.68 | 1:44.62 | 297293 | 305154
35 | 70:20.55 | 6:38.34 | 316555 | 346438
Track 1
Filename D:\Temp\Массне - Manon - Gheorghiu, Alagna, Patriarco, van Dam - Pappano 1999\Массне - Manon - Antonio Pappano 1999 CD 1\01. Prelude.wav
Pre-gap length 0:00:02.00
Peak level 73.2 %
Extraction speed 2.5 X
Track quality 100.0 %
Test CRC 0D1085BB
Copy CRC 0D1085BB
Accurately ripped (confidence 5) [1E964F81] (AR v2)
Copy OK
Track 2
Filename D:\Temp\Массне - Manon - Gheorghiu, Alagna, Patriarco, van Dam - Pappano 1999\Массне - Manon - Antonio Pappano 1999 CD 1\02. Act 1. Hola! He! Monsieur l'Hotelier.wav
Peak level 77.0 %
Extraction speed 2.5 X
Track quality 100.0 %
Test CRC 2FB290D9
Copy CRC 2FB290D9
Accurately ripped (confidence 5) [888A8618] (AR v2)
Copy OK
Track 3
Filename D:\Temp\Массне - Manon - Gheorghiu, Alagna, Patriarco, van Dam - Pappano 1999\Массне - Manon - Antonio Pappano 1999 CD 1\03. Act 1. Hors-d'oeuvres de choix.wav
Peak level 83.2 %
Extraction speed 2.5 X
Track quality 100.0 %
Test CRC 0FD496A9
Copy CRC 0FD496A9
Accurately ripped (confidence 5) [8B68A92D] (AR v2)
Copy OK
Track 4
Filename D:\Temp\Массне - Manon - Gheorghiu, Alagna, Patriarco, van Dam - Pappano 1999\Массне - Manon - Antonio Pappano 1999 CD 1\04. Act 1. Et mais, voila deja la rimbambelle des bons bourgeois!.wav
Peak level 45.6 %
Extraction speed 2.4 X
Track quality 100.0 %
Test CRC D77F9DD0
Copy CRC D77F9DD0
Accurately ripped (confidence 5) [2F394272] (AR v2)
Copy OK
Track 5
Filename D:\Temp\Массне - Manon - Gheorghiu, Alagna, Patriarco, van Dam - Pappano 1999\Массне - Manon - Antonio Pappano 1999 CD 1\05. Act 1. Allez a l'auberge voisine.wav
Peak level 84.0 %
Extraction speed 2.2 X
Track quality 100.0 %
Test CRC 8A8AA63A
Copy CRC 8A8AA63A
Accurately ripped (confidence 5) [DF99AE41] (AR v2)
Copy OK
Track 6
Filename D:\Temp\Массне - Manon - Gheorghiu, Alagna, Patriarco, van Dam - Pappano 1999\Массне - Manon - Antonio Pappano 1999 CD 1\06. Act 1. Oh! ma coiffure! Oh! ma toilette!.wav
Peak level 99.0 %
Extraction speed 2.3 X
Track quality 100.0 %
Test CRC D13F75D6
Copy CRC D13F75D6
Accurately ripped (confidence 5) [23428B95] (AR v2)
Copy OK
Track 7
Filename D:\Temp\Массне - Manon - Gheorghiu, Alagna, Patriarco, van Dam - Pappano 1999\Массне - Manon - Antonio Pappano 1999 CD 1\07. Act 1. Voyez! cette jeune fille!.wav
Peak level 55.1 %
Extraction speed 2.5 X
Track quality 100.0 %
Test CRC BAA9B603
Copy CRC BAA9B603
Accurately ripped (confidence 5) [D984FC89] (AR v2)
Copy OK
Track 8
Filename D:\Temp\Массне - Manon - Gheorghiu, Alagna, Patriarco, van Dam - Pappano 1999\Массне - Manon - Antonio Pappano 1999 CD 1\08. Act 1. Je suis encor tout etourdie.wav
Peak level 80.5 %
Extraction speed 3.1 X
Track quality 100.0 %
Test CRC 0BB1616F
Copy CRC 0BB1616F
Accurately ripped (confidence 5) [02B0079F] (AR v2)
Copy OK
Track 9
Filename D:\Temp\Массне - Manon - Gheorghiu, Alagna, Patriarco, van Dam - Pappano 1999\Массне - Manon - Antonio Pappano 1999 CD 1\09. Act 1. Partez! On sonne!.wav
Peak level 99.0 %
Extraction speed 2.2 X
Track quality 99.9 %
Test CRC A9D40FE0
Copy CRC A9D40FE0
Accurately ripped (confidence 5) [6825583D] (AR v2)
Copy OK
Track 10
Filename D:\Temp\Массне - Manon - Gheorghiu, Alagna, Patriarco, van Dam - Pappano 1999\Массне - Manon - Antonio Pappano 1999 CD 1\10. Act 1. Hotelier de malheur!.wav
Peak level 55.3 %
Extraction speed 3.2 X
Track quality 100.0 %
Test CRC EB6B0F8A
Copy CRC EB6B0F8A
Accurately ripped (confidence 5) [AFADBEA0] (AR v2)
Copy OK
Track 11
Filename D:\Temp\Массне - Manon - Gheorghiu, Alagna, Patriarco, van Dam - Pappano 1999\Массне - Manon - Antonio Pappano 1999 CD 1\11. Act 1. Il vous parlait, Manon.wav
Peak level 42.9 %
Extraction speed 2.3 X
Track quality 100.0 %
Test CRC 250A14F8
Copy CRC 250A14F8
Accurately ripped (confidence 5) [1580ACC5] (AR v2)
Copy OK
Track 12
Filename D:\Temp\Массне - Manon - Gheorghiu, Alagna, Patriarco, van Dam - Pappano 1999\Массне - Manon - Antonio Pappano 1999 CD 1\12. Act 1. Regardez-moi bien dans les yeux!.wav
Peak level 47.9 %
Extraction speed 3.3 X
Track quality 100.0 %
Test CRC DB2B6878
Copy CRC DB2B6878
Accurately ripped (confidence 5) [368D3508] (AR v2)
Copy OK
Track 13
Filename D:\Temp\Массне - Manon - Gheorghiu, Alagna, Patriarco, van Dam - Pappano 1999\Массне - Manon - Antonio Pappano 1999 CD 1\13. Act 1. Restons ici, puis-qu'il le faut!.wav
Peak level 78.3 %
Extraction speed 3.0 X
Track quality 100.0 %
Test CRC 4E75488C
Copy CRC 4E75488C
Accurately ripped (confidence 5) [F1ABCA91] (AR v2)
Copy OK
Track 14
Filename D:\Temp\Массне - Manon - Gheorghiu, Alagna, Patriarco, van Dam - Pappano 1999\Массне - Manon - Antonio Pappano 1999 CD 1\14. Act 1. Voyons, Manon, plus de chimeres.wav
Peak level 70.5 %
Extraction speed 3.2 X
Track quality 100.0 %
Test CRC 34BB9B48
Copy CRC 34BB9B48
Accurately ripped (confidence 5) [F75F8EC7] (AR v2)
Copy OK
Track 15
Filename D:\Temp\Массне - Manon - Gheorghiu, Alagna, Patriarco, van Dam - Pappano 1999\Массне - Manon - Antonio Pappano 1999 CD 1\15. Act 1. Quelqu-un! Vite, a mon banc de pierre.wav
Peak level 48.4 %
Extraction speed 2.6 X
Track quality 99.9 %
Test CRC 6390C40C
Copy CRC 6390C40C
Accurately ripped (confidence 5) [F4EF4D2A] (AR v2)
Copy OK
Track 16
Filename D:\Temp\Массне - Manon - Gheorghiu, Alagna, Patriarco, van Dam - Pappano 1999\Массне - Manon - Antonio Pappano 1999 CD 1\16. Act 1. Madamoiselle!... Eh, quoi.wav
Peak level 66.0 %
Extraction speed 3.4 X
Track quality 100.0 %
Test CRC 2B8ACBEE
Copy CRC 2B8ACBEE
Accurately ripped (confidence 5) [CFF5BBD0] (AR v2)
Copy OK
Track 17
Filename D:\Temp\Массне - Manon - Gheorghiu, Alagna, Patriarco, van Dam - Pappano 1999\Массне - Manon - Antonio Pappano 1999 CD 1\17. Act 1. Ah! Parlez-moi!.wav
Peak level 92.6 %
Extraction speed 3.6 X
Track quality 100.0 %
Test CRC 6831D5B2
Copy CRC 6831D5B2
Accurately ripped (confidence 5) [0956C582] (AR v2)
Copy OK
Track 18
Filename D:\Temp\Массне - Manon - Gheorghiu, Alagna, Patriarco, van Dam - Pappano 1999\Массне - Manon - Antonio Pappano 1999 CD 1\18. Act 1. Par aventure, peut-etre avons-nous mieux.wav
Peak level 69.1 %
Extraction speed 1.6 X
Track quality 99.7 %
Test CRC C4E4721D
Copy CRC C4E4721D
Accurately ripped (confidence 5) [1BB23317] (AR v2)
Copy OK
Track 19
Filename D:\Temp\Массне - Manon - Gheorghiu, Alagna, Patriarco, van Dam - Pappano 1999\Массне - Manon - Antonio Pappano 1999 CD 1\19. Act 1. Nous vivrons a Paris tous les deux.wav
Peak level 90.5 %
Extraction speed 3.4 X
Track quality 100.0 %
Test CRC 5F4BB8D8
Copy CRC 5F4BB8D8
Accurately ripped (confidence 5) [D7FF70D9] (AR v2)
Copy OK
Track 20
Filename D:\Temp\Массне - Manon - Gheorghiu, Alagna, Patriarco, van Dam - Pappano 1999\Массне - Manon - Antonio Pappano 1999 CD 1\20. Act 1. Revenez, Guillot, revenez!.wav
Peak level 93.2 %
Extraction speed 1.9 X
Track quality 99.8 %
Test CRC 090A9942
Copy CRC 090A9942
Accurately ripped (confidence 5) [BBD1D6DC] (AR v2)
Copy OK
Track 21
Filename D:\Temp\Массне - Manon - Gheorghiu, Alagna, Patriarco, van Dam - Pappano 1999\Массне - Manon - Antonio Pappano 1999 CD 1\21. Act 1. Plus un sou! Le tour est tres plaisant!.wav
Peak level 97.9 %
Extraction speed 4.0 X
Track quality 100.0 %
Test CRC 840139AE
Copy CRC 840139AE
Accurately ripped (confidence 5) [BD7E5170] (AR v2)
Copy OK
Track 22
Filename D:\Temp\Массне - Manon - Gheorghiu, Alagna, Patriarco, van Dam - Pappano 1999\Массне - Manon - Antonio Pappano 1999 CD 1\22. Act 2. Prelude.wav
Pre-gap length 0:00:04.73
Peak level 34.2 %
Extraction speed 3.7 X
Track quality 100.0 %
Test CRC 6C82B78A
Copy CRC 6C82B78A
Accurately ripped (confidence 5) [2C8ACD26] (AR v2)
Copy OK
Track 23
Filename D:\Temp\Массне - Manon - Gheorghiu, Alagna, Patriarco, van Dam - Pappano 1999\Массне - Manon - Antonio Pappano 1999 CD 1\23. Act 2. Manon!... Avez-vous peur que mon visage frole.wav
Peak level 63.4 %
Extraction speed 3.8 X
Track quality 99.9 %
Test CRC 15DBF945
Copy CRC 15DBF945
Accurately ripped (confidence 5) [C0E03646] (AR v2)
Copy OK
Track 24
Filename D:\Temp\Массне - Manon - Gheorghiu, Alagna, Patriarco, van Dam - Pappano 1999\Массне - Manon - Antonio Pappano 1999 CD 1\24. Act 2. Il ne te suffit pas alors de nous aimer.wav
Peak level 45.6 %
Extraction speed 2.7 X
Track quality 100.0 %
Test CRC 04896593
Copy CRC 04896593
Accurately ripped (confidence 5) [2B976309] (AR v2)
Copy OK
Track 25
Filename D:\Temp\Массне - Manon - Gheorghiu, Alagna, Patriarco, van Dam - Pappano 1999\Массне - Manon - Antonio Pappano 1999 CD 1\25. Act 2. Qui donc se permet un pareil tapage.wav
Peak level 91.1 %
Extraction speed 4.3 X
Track quality 100.0 %
Test CRC BE6AD61A
Copy CRC BE6AD61A
Accurately ripped (confidence 5) [2046AD96] (AR v2)
Copy OK
Track 26
Filename D:\Temp\Массне - Manon - Gheorghiu, Alagna, Patriarco, van Dam - Pappano 1999\Массне - Manon - Antonio Pappano 1999 CD 1\26. Act 2. Madamoiselle est ma cousine.wav
Peak level 63.2 %
Extraction speed 3.5 X
Track quality 100.0 %
Test CRC 3AA02702
Copy CRC 3AA02702
Accurately ripped (confidence 5) [B3A6A963] (AR v2)
Copy OK
Track 27
Filename D:\Temp\Массне - Manon - Gheorghiu, Alagna, Patriarco, van Dam - Pappano 1999\Массне - Manon - Antonio Pappano 1999 CD 1\27. Act 2. Je venais d'ecrire a mon pere.wav
Peak level 84.6 %
Extraction speed 4.5 X
Track quality 100.0 %
Test CRC 1D1BD457
Copy CRC 1D1BD457
Accurately ripped (confidence 5) [70B83879] (AR v2)
Copy OK
Track 28
Filename D:\Temp\Массне - Manon - Gheorghiu, Alagna, Patriarco, van Dam - Pappano 1999\Массне - Manon - Antonio Pappano 1999 CD 1\28. Act 2. C'est parfait! On ne peut mieux dire.wav
Peak level 56.2 %
Extraction speed 4.0 X
Track quality 100.0 %
Test CRC F0A2A281
Copy CRC F0A2A281
Accurately ripped (confidence 5) [C3570566] (AR v2)
Copy OK
Track 29
Filename D:\Temp\Массне - Manon - Gheorghiu, Alagna, Patriarco, van Dam - Pappano 1999\Массне - Manon - Antonio Pappano 1999 CD 1\29. Act 2. Que nous veut-on.wav
Peak level 16.6 %
Extraction speed 2.1 X
Track quality 99.7 %
Test CRC 1E074A76
Copy CRC 1E074A76
Accurately ripped (confidence 5) [57D77E21] (AR v2)
Copy OK
Track 30
Filename D:\Temp\Массне - Manon - Gheorghiu, Alagna, Patriarco, van Dam - Pappano 1999\Массне - Manon - Antonio Pappano 1999 CD 1\30. Act 2. Allons! il le faut pour lui-meme.wav
Peak level 97.9 %
Extraction speed 4.2 X
Track quality 100.0 %
Test CRC A6C58134
Copy CRC A6C58134
Accurately ripped (confidence 5) [3A95B38E] (AR v2)
Copy OK
Track 31
Filename D:\Temp\Массне - Manon - Gheorghiu, Alagna, Patriarco, van Dam - Pappano 1999\Массне - Manon - Antonio Pappano 1999 CD 1\31. Act 2. Adieu, notre petite table.wav
Peak level 49.2 %
Extraction speed 4.3 X
Track quality 100.0 %
Test CRC 0DF1D5F9
Copy CRC 0DF1D5F9
Accurately ripped (confidence 5) [5FF108B2] (AR v2)
Copy OK
Track 32
Filename D:\Temp\Массне - Manon - Gheorghiu, Alagna, Patriarco, van Dam - Pappano 1999\Массне - Manon - Antonio Pappano 1999 CD 1\32. Act 2. C'est lui! Que ma pâleur ne me trahisse pas!.wav
Peak level 45.3 %
Extraction speed 4.2 X
Track quality 100.0 %
Test CRC FD3FD502
Copy CRC FD3FD502
Accurately ripped (confidence 5) [EB659724] (AR v2)
Copy OK
Track 33
Filename D:\Temp\Массне - Manon - Gheorghiu, Alagna, Patriarco, van Dam - Pappano 1999\Массне - Manon - Antonio Pappano 1999 CD 1\33. Act 2. En fermant les yeux je vois la-bas.wav
Peak level 23.0 %
Extraction speed 4.1 X
Track quality 99.9 %
Test CRC 13D233ED
Copy CRC 13D233ED
Accurately ripped (confidence 5) [055E1410] (AR v2)
Copy OK
Track 34
Filename D:\Temp\Массне - Manon - Gheorghiu, Alagna, Patriarco, van Dam - Pappano 1999\Массне - Manon - Antonio Pappano 1999 CD 1\34. Act 2. Oh! Ciel! Deja!... Quelqu'un! Il ne faut pas de trouble-fete.wav
Peak level 93.3 %
Extraction speed 4.3 X
Track quality 100.0 %
Test CRC A4FDD203
Copy CRC A4FDD203
Accurately ripped (confidence 5) [70DDC967] (AR v2)
Copy OK
All tracks accurately ripped
No errors occurred
End of status report
==== Log checksum EC1693ABD980635F5BEB076D3E2A58D5CB616726B54A5EC370ADBEEB86878620 ====

Gheorghiu, Alagna, Patriarco, van Dam - Массне - Manon - Antonio Pappano 1999 CD 2.log

Exact Audio Copy V1.0 beta 3 from 29. August 2011
EAC extraction logfile from 17. October 2015, 17:40
Antonio Pappano / Massenet- Manon (Disc 2)
Used drive : hp DVDRAM GT50N Adapter: 0 ID: 0
Read mode : Secure
Utilize accurate stream : Yes
Defeat audio cache : Yes
Make use of C2 pointers : No
Read offset correction : 103
Overread into Lead-In and Lead-Out : No
Fill up missing offset samples with silence : Yes
Delete leading and trailing silent blocks : No
Null samples used in CRC calculations : Yes
Used interface : Native Win32 interface for Win NT & 2000
Gap handling : Appended to previous track
Used output format : User Defined Encoder
Selected bitrate : 128 kBit/s
Quality : High
Add ID3 tag : No
Command line compressor : C:\Program Files\Exact Audio Copy\Flac\flac.exe
Additional command line options : -V -8 -T "Genre=%genre%" -T "Artist=%artist%" -T "Title=%title%" -T "Album=%albumtitle%" -T "Date=%year%" -T "Tracknumber=%tracknr%" -T "Comment=%comment%" %source%
TOC of the extracted CD
Track | Start | Length | Start sector | End sector
---------------------------------------------------------
1 | 0:00.00 | 2:09.72 | 0 | 9746
2 | 2:09.72 | 1:32.53 | 9747 | 16699
3 | 3:42.50 | 1:53.50 | 16700 | 25224
4 | 5:36.25 | 1:07.27 | 25225 | 30276
5 | 6:43.52 | 2:37.50 | 30277 | 42101
6 | 9:21.27 | 1:49.53 | 42102 | 50329
7 | 11:11.05 | 2:18.62 | 50330 | 60741
8 | 13:29.67 | 2:06.37 | 60742 | 70228
9 | 15:36.29 | 3:08.43 | 70229 | 84371
10 | 18:44.72 | 1:24.15 | 84372 | 90686
11 | 20:09.12 | 0:43.08 | 90687 | 93919
12 | 20:52.20 | 1:57.22 | 93920 | 102716
13 | 22:49.42 | 1:00.18 | 102717 | 107234
14 | 23:49.60 | 1:10.15 | 107235 | 112499
15 | 25:00.00 | 1:27.22 | 112500 | 119046
16 | 26:27.22 | 1:47.10 | 119047 | 127081
17 | 28:14.32 | 1:12.70 | 127082 | 132551
18 | 29:27.27 | 1:09.50 | 132552 | 137776
19 | 30:37.02 | 0:45.43 | 137777 | 141194
20 | 31:22.45 | 0:51.22 | 141195 | 145041
21 | 32:13.67 | 0:41.70 | 145042 | 148186
22 | 32:55.62 | 3:11.08 | 148187 | 162519
23 | 36:06.70 | 0:48.07 | 162520 | 166126
24 | 36:55.02 | 3:00.50 | 166127 | 179676
25 | 39:55.52 | 1:21.73 | 179677 | 185824
26 | 41:17.50 | 3:39.42 | 185825 | 202291
27 | 44:57.17 | 3:13.40 | 202292 | 216806
28 | 48:10.57 | 3:14.15 | 216807 | 231371
29 | 51:24.72 | 3:41.30 | 231372 | 247976
Track 1
Filename D:\Temp\Массне - Manon - Gheorghiu, Alagna, Patriarco, van Dam - Pappano 1999\Массне - Manon - Antonio Pappano 1999 CD 2\01. Scene 1, Entracte - Menuet.wav
Pre-gap length 0:00:02.00
Peak level 95.4 %
Extraction speed 2.1 X
Track quality 100.0 %
Test CRC 7789CD7C
Copy CRC 7789CD7C
Accurately ripped (confidence 5) [7E98C927] (AR v2)
Copy OK
Track 2
Filename D:\Temp\Массне - Manon - Gheorghiu, Alagna, Patriarco, van Dam - Pappano 1999\Массне - Manon - Antonio Pappano 1999 CD 2\02. Voyez mules a fleurettes!.wav
Peak level 97.2 %
Extraction speed 2.1 X
Track quality 100.0 %
Test CRC 40BAF5B9
Copy CRC 40BAF5B9
Accurately ripped (confidence 5) [B61E72E8] (AR v2)
Copy OK
Track 3
Filename D:\Temp\Массне - Manon - Gheorghiu, Alagna, Patriarco, van Dam - Pappano 1999\Массне - Manon - Antonio Pappano 1999 CD 2\03. La charmante promenade!.wav
Peak level 76.0 %
Extraction speed 2.3 X
Track quality 100.0 %
Test CRC 31B350DF
Copy CRC 31B350DF
Accurately ripped (confidence 5) [BC51205F] (AR v2)
Copy OK
Track 4
Filename D:\Temp\Массне - Manon - Gheorghiu, Alagna, Patriarco, van Dam - Pappano 1999\Массне - Manon - Antonio Pappano 1999 CD 2\04. Choisir! Et pourquoi.wav
Peak level 79.2 %
Extraction speed 1.5 X
Track quality 99.8 %
Test CRC 43074ACB
Copy CRC 43074ACB
Accurately ripped (confidence 5) [705A2B72] (AR v2)
Copy OK
Track 5
Filename D:\Temp\Массне - Manon - Gheorghiu, Alagna, Patriarco, van Dam - Pappano 1999\Массне - Manon - Antonio Pappano 1999 CD 2\05. O Rosalinde, il me faudrait gravir le Pinde.wav
Peak level 59.7 %
Extraction speed 2.2 X
Track quality 99.9 %
Test CRC 2221A73C
Copy CRC 2221A73C
Accurately ripped (confidence 5) [815AAB98] (AR v2)
Copy OK
Track 6
Filename D:\Temp\Массне - Manon - Gheorghiu, Alagna, Patriarco, van Dam - Pappano 1999\Массне - Manon - Antonio Pappano 1999 CD 2\06. Bonjour! Poussette! ... Dig et dig et don!.wav
Peak level 28.1 %
Extraction speed 2.6 X
Track quality 100.0 %
Test CRC ED11642D
Copy CRC ED11642D
Accurately ripped (confidence 5) [AA8DB59A] (AR v2)
Copy OK
Track 7
Filename D:\Temp\Массне - Manon - Gheorghiu, Alagna, Patriarco, van Dam - Pappano 1999\Массне - Manon - Antonio Pappano 1999 CD 2\07. Voici les elegantes! Les belles indolentes.wav
Peak level 88.8 %
Extraction speed 2.9 X
Track quality 100.0 %
Test CRC 7A85CBA8
Copy CRC 7A85CBA8
Accurately ripped (confidence 5) [D284EFC0] (AR v2)
Copy OK
Track 8
Filename D:\Temp\Массне - Manon - Gheorghiu, Alagna, Patriarco, van Dam - Pappano 1999\Массне - Manon - Antonio Pappano 1999 CD 2\08. Je marches sur tous les chemins.wav
Peak level 97.4 %
Extraction speed 2.3 X
Track quality 99.9 %
Test CRC 2B4477BF
Copy CRC 2B4477BF
Accurately ripped (confidence 5) [DF9EF45D] (AR v2)
Copy OK
Track 9
Filename D:\Temp\Массне - Manon - Gheorghiu, Alagna, Patriarco, van Dam - Pappano 1999\Массне - Manon - Antonio Pappano 1999 CD 2\09. Obeissons quand leur voix appelle (Gavotte).wav
Peak level 85.1 %
Extraction speed 2.8 X
Track quality 99.9 %
Test CRC 72D59E1B
Copy CRC 72D59E1B
Accurately ripped (confidence 5) [ECB2AC50] (AR v2)
Copy OK
Track 10
Filename D:\Temp\Массне - Manon - Gheorghiu, Alagna, Patriarco, van Dam - Pappano 1999\Массне - Manon - Antonio Pappano 1999 CD 2\10. Et maintenant restez seul un instant.wav
Peak level 39.2 %
Extraction speed 2.7 X
Track quality 100.0 %
Test CRC 8DCBE06D
Copy CRC 8DCBE06D
Accurately ripped (confidence 5) [F0D39668] (AR v2)
Copy OK
Track 11
Filename D:\Temp\Массне - Manon - Gheorghiu, Alagna, Patriarco, van Dam - Pappano 1999\Массне - Manon - Antonio Pappano 1999 CD 2\11. Je ne me trompe pas, le Comte des Grieux.wav
Peak level 17.2 %
Extraction speed 2.1 X
Track quality 100.0 %
Test CRC 6FA61812
Copy CRC 6FA61812
Accurately ripped (confidence 5) [25999741] (AR v2)
Copy OK
Track 12
Filename D:\Temp\Массне - Manon - Gheorghiu, Alagna, Patriarco, van Dam - Pappano 1999\Массне - Manon - Antonio Pappano 1999 CD 2\12. Oui, c'est Manon!.wav
Peak level 56.2 %
Extraction speed 3.2 X
Track quality 100.0 %
Test CRC 5623C06F
Copy CRC 5623C06F
Accurately ripped (confidence 5) [C6CB505E] (AR v2)
Copy OK
Track 13
Filename D:\Temp\Массне - Manon - Gheorghiu, Alagna, Patriarco, van Dam - Pappano 1999\Массне - Manon - Antonio Pappano 1999 CD 2\13. Faut-it donc savoir tant de choses.wav
Peak level 50.1 %
Extraction speed 2.6 X
Track quality 100.0 %
Test CRC E15E60E2
Copy CRC E15E60E2
Accurately ripped (confidence 5) [90C240DA] (AR v2)
Copy OK
Track 14
Filename D:\Temp\Массне - Manon - Gheorghiu, Alagna, Patriarco, van Dam - Pappano 1999\Массне - Manon - Antonio Pappano 1999 CD 2\14. Un mot encore!.wav
Peak level 33.4 %
Extraction speed 2.8 X
Track quality 100.0 %
Test CRC C41FE510
Copy CRC C41FE510
Accurately ripped (confidence 5) [480B8625] (AR v2)
Copy OK
Track 15
Filename D:\Temp\Массне - Manon - Gheorghiu, Alagna, Patriarco, van Dam - Pappano 1999\Массне - Manon - Antonio Pappano 1999 CD 2\15. Repondez-moi, Guillot!.wav
Peak level 50.8 %
Extraction speed 2.3 X
Track quality 99.8 %
Test CRC 144C8B82
Copy CRC 144C8B82
Accurately ripped (confidence 5) [8C30CB1F] (AR v2)
Copy OK
Track 16
Filename D:\Temp\Массне - Manon - Gheorghiu, Alagna, Patriarco, van Dam - Pappano 1999\Массне - Manon - Antonio Pappano 1999 CD 2\16. L'Opera! Voici l'Opera!.wav
Peak level 98.9 %
Extraction speed 3.2 X
Track quality 100.0 %
Test CRC 1CECC0C3
Copy CRC 1CECC0C3
Accurately ripped (confidence 5) [851C9825] (AR v2)
Copy OK
Track 17
Filename D:\Temp\Массне - Manon - Gheorghiu, Alagna, Patriarco, van Dam - Pappano 1999\Массне - Manon - Antonio Pappano 1999 CD 2\17. Ballet, Premiere Entree.wav
Peak level 43.3 %
Extraction speed 2.9 X
Track quality 100.0 %
Test CRC BE2972FE
Copy CRC BE2972FE
Accurately ripped (confidence 5) [815CF01A] (AR v2)
Copy OK
Track 18
Filename D:\Temp\Массне - Manon - Gheorghiu, Alagna, Patriarco, van Dam - Pappano 1999\Массне - Manon - Antonio Pappano 1999 CD 2\18. Deuxieme Entree.wav
Peak level 8.6 %
Extraction speed 2.9 X
Track quality 100.0 %
Test CRC 27F28BAD
Copy CRC 27F28BAD
Accurately ripped (confidence 5) [9F05418B] (AR v2)
Copy OK
Track 19
Filename D:\Temp\Массне - Manon - Gheorghiu, Alagna, Patriarco, van Dam - Pappano 1999\Массне - Manon - Antonio Pappano 1999 CD 2\19. Troisieme Entree.wav
Peak level 57.1 %
Extraction speed 2.6 X
Track quality 100.0 %
Test CRC F83E222E
Copy CRC F83E222E
Accurately ripped (confidence 5) [4C179968] (AR v2)
Copy OK
Track 20
Filename D:\Temp\Массне - Manon - Gheorghiu, Alagna, Patriarco, van Dam - Pappano 1999\Массне - Manon - Antonio Pappano 1999 CD 2\20. Quatrieme Entree.wav
Peak level 18.4 %
Extraction speed 2.7 X
Track quality 100.0 %
Test CRC 10991E33
Copy CRC 10991E33
Accurately ripped (confidence 5) [35EDAA29] (AR v2)
Copy OK
Track 21
Filename D:\Temp\Массне - Manon - Gheorghiu, Alagna, Patriarco, van Dam - Pappano 1999\Массне - Manon - Antonio Pappano 1999 CD 2\21. C'est fete au Cours-la-Reine!.wav
Peak level 99.0 %
Extraction speed 2.5 X
Track quality 100.0 %
Test CRC 23E13CB3
Copy CRC 23E13CB3
Accurately ripped (confidence 5) [001E63B7] (AR v2)
Copy OK
Track 22
Filename D:\Temp\Массне - Manon - Gheorghiu, Alagna, Patriarco, van Dam - Pappano 1999\Массне - Manon - Antonio Pappano 1999 CD 2\22. Scene 2, Quelle eloquence!.wav
Pre-gap length 0:00:04.60
Peak level 68.9 %
Extraction speed 4.0 X
Track quality 100.0 %
Test CRC B3EACB17
Copy CRC B3EACB17
Accurately ripped (confidence 5) [F9915D2E] (AR v2)
Copy OK
Track 23
Filename D:\Temp\Массне - Manon - Gheorghiu, Alagna, Patriarco, van Dam - Pappano 1999\Массне - Manon - Antonio Pappano 1999 CD 2\23. Bravo mon cher, succes complet!.wav
Peak level 44.5 %
Extraction speed 1.8 X
Track quality 99.7 %
Test CRC 1C7E2B59
Copy CRC 1C7E2B59
Accurately ripped (confidence 5) [7884E3F5] (AR v2)
Copy OK
Track 24
Filename D:\Temp\Массне - Manon - Gheorghiu, Alagna, Patriarco, van Dam - Pappano 1999\Массне - Manon - Antonio Pappano 1999 CD 2\24. Epouse quelque brave fille.wav
Peak level 58.6 %
Extraction speed 4.2 X
Track quality 100.0 %
Test CRC EC17F6B2
Copy CRC EC17F6B2
Accurately ripped (confidence 5) [697E2362] (AR v2)
Copy OK
Track 25
Filename D:\Temp\Массне - Manon - Gheorghiu, Alagna, Patriarco, van Dam - Pappano 1999\Массне - Manon - Antonio Pappano 1999 CD 2\25. Je suis seul! Seul enfin!.wav
Peak level 25.6 %
Extraction speed 2.6 X
Track quality 99.8 %
Test CRC C2FEDA26
Copy CRC C2FEDA26
Accurately ripped (confidence 5) [98556BFA] (AR v2)
Copy OK
Track 26
Filename D:\Temp\Массне - Manon - Gheorghiu, Alagna, Patriarco, van Dam - Pappano 1999\Массне - Manon - Antonio Pappano 1999 CD 2\26. Ah! fuyez, douce image.wav
Peak level 92.6 %
Extraction speed 4.5 X
Track quality 100.0 %
Test CRC E4239AF7
Copy CRC E4239AF7
Accurately ripped (confidence 5) [98FEBAA5] (AR v2)
Copy OK
Track 27
Filename D:\Temp\Массне - Manon - Gheorghiu, Alagna, Patriarco, van Dam - Pappano 1999\Массне - Manon - Antonio Pappano 1999 CD 2\27. Monsieur je veux parler a l'Abbe Des Grieux.wav
Peak level 83.2 %
Extraction speed 3.8 X
Track quality 99.9 %
Test CRC 40479258
Copy CRC 40479258
Accurately ripped (confidence 5) [0D2DE624] (AR v2)
Copy OK
Track 28
Filename D:\Temp\Массне - Manon - Gheorghiu, Alagna, Patriarco, van Dam - Pappano 1999\Массне - Manon - Antonio Pappano 1999 CD 2\28. Toi! Vous! ... Oui, c'est moi!.wav
Peak level 89.3 %
Extraction speed 4.0 X
Track quality 99.9 %
Test CRC 3417486F
Copy CRC 3417486F
Accurately ripped (confidence 5) [FDB7BF8B] (AR v2)
Copy OK
Track 29
Filename D:\Temp\Массне - Manon - Gheorghiu, Alagna, Patriarco, van Dam - Pappano 1999\Массне - Manon - Antonio Pappano 1999 CD 2\29. N'est-ce plus ma main.wav
Peak level 93.5 %
Extraction speed 4.8 X
Track quality 100.0 %
Test CRC 09D84722
Copy CRC 09D84722
Accurately ripped (confidence 5) [86A29ADB] (AR v2)
Copy OK
All tracks accurately ripped
No errors occurred
End of status report
==== Log checksum 6A0D57DEB5E8E8C8E2CE7E8D2A051DE8E9D33FE9D18408F708BEF826969CB03D ====

Gheorghiu, Alagna, Patriarco, van Dam - Массне - Manon - Antonio Pappano 1999 CD 3.log

Exact Audio Copy V1.0 beta 3 from 29. August 2011
EAC extraction logfile from 17. October 2015, 18:48
Antonio Pappano / Massenet- Manon (Disc 3)
Used drive : hp DVDRAM GT50N Adapter: 0 ID: 0
Read mode : Secure
Utilize accurate stream : Yes
Defeat audio cache : Yes
Make use of C2 pointers : No
Read offset correction : 103
Overread into Lead-In and Lead-Out : No
Fill up missing offset samples with silence : Yes
Delete leading and trailing silent blocks : No
Null samples used in CRC calculations : Yes
Used interface : Native Win32 interface for Win NT & 2000
Gap handling : Appended to previous track
Used output format : User Defined Encoder
Selected bitrate : 128 kBit/s
Quality : High
Add ID3 tag : No
Command line compressor : C:\Program Files\Exact Audio Copy\Flac\flac.exe
Additional command line options : -V -8 -T "Genre=%genre%" -T "Artist=%artist%" -T "Title=%title%" -T "Album=%albumtitle%" -T "Date=%year%" -T "Tracknumber=%tracknr%" -T "Comment=%comment%" %source%
TOC of the extracted CD
Track | Start | Length | Start sector | End sector
---------------------------------------------------------
1 | 0:00.00 | 1:14.20 | 0 | 5569
2 | 1:14.20 | 1:40.07 | 5570 | 13076
3 | 2:54.27 | 1:27.68 | 13077 | 19669
4 | 4:22.20 | 2:12.27 | 19670 | 29596
5 | 6:34.47 | 1:45.53 | 29597 | 37524
6 | 8:20.25 | 3:59.55 | 37525 | 55504
7 | 12:20.05 | 1:04.52 | 55505 | 60356
8 | 13:24.57 | 2:03.03 | 60357 | 69584
9 | 15:27.60 | 3:33.30 | 69585 | 85589
10 | 19:01.15 | 1:17.42 | 85590 | 91406
11 | 20:18.57 | 2:35.70 | 91407 | 103101
12 | 22:54.52 | 3:07.15 | 103102 | 117141
13 | 26:01.67 | 4:41.08 | 117142 | 138224
14 | 30:43.00 | 3:07.62 | 138225 | 152311
15 | 33:50.62 | 2:00.70 | 152312 | 161381
16 | 35:51.57 | 2:16.08 | 161382 | 171589
17 | 38:07.65 | 2:09.72 | 171590 | 181336
Track 1
Filename D:\Temp\Массне - Manon - Gheorghiu, Alagna, Patriarco, van Dam - Pappano 1999\Массне - Manon - Antonio Pappano 1999 CD 3\01. Act 4, Faites vos jeux, Messieurs!.wav
Pre-gap length 0:00:02.00
Peak level 98.9 %
Extraction speed 1.7 X
Track quality 100.0 %
Test CRC F8EB23F7
Copy CRC F8EB23F7
Accurately ripped (confidence 5) [DCCAB1B1] (AR v2)
Copy OK
Track 2
Filename D:\Temp\Массне - Manon - Gheorghiu, Alagna, Patriarco, van Dam - Pappano 1999\Массне - Manon - Antonio Pappano 1999 CD 3\02. Je vous jure que l'argent m'appartient.wav
Peak level 59.0 %
Extraction speed 2.0 X
Track quality 100.0 %
Test CRC 2FF4F46D
Copy CRC 2FF4F46D
Accurately ripped (confidence 5) [948B6AD6] (AR v2)
Copy OK
Track 3
Filename D:\Temp\Массне - Manon - Gheorghiu, Alagna, Patriarco, van Dam - Pappano 1999\Массне - Manon - Antonio Pappano 1999 CD 3\03. C'est ici que celle que j'aime.wav
Peak level 97.3 %
Extraction speed 2.0 X
Track quality 100.0 %
Test CRC C4B85A54
Copy CRC C4B85A54
Accurately ripped (confidence 5) [8CB1B8A3] (AR v2)
Copy OK
Track 4
Filename D:\Temp\Массне - Manon - Gheorghiu, Alagna, Patriarco, van Dam - Pappano 1999\Массне - Manon - Antonio Pappano 1999 CD 3\04. Bravo, mon cher! ... Merci!.wav
Peak level 29.8 %
Extraction speed 2.4 X
Track quality 100.0 %
Test CRC A68C64C6
Copy CRC A68C64C6
Accurately ripped (confidence 5) [CBA56818] (AR v2)
Copy OK
Track 5
Filename D:\Temp\Массне - Manon - Gheorghiu, Alagna, Patriarco, van Dam - Pappano 1999\Массне - Manon - Antonio Pappano 1999 CD 3\05. Mais donc nous arrive et fait tout ce tapage.wav
Peak level 46.4 %
Extraction speed 2.4 X
Track quality 100.0 %
Test CRC EB601B17
Copy CRC EB601B17
Accurately ripped (confidence 5) [F0C3F32B] (AR v2)
Copy OK
Track 6
Filename D:\Temp\Массне - Manon - Gheorghiu, Alagna, Patriarco, van Dam - Pappano 1999\Массне - Manon - Antonio Pappano 1999 CD 3\06. Manon, Sphinx etonnant, veritable sirene!.wav
Peak level 94.9 %
Extraction speed 3.0 X
Track quality 100.0 %
Test CRC BC854B05
Copy CRC BC854B05
Accurately ripped (confidence 5) [831CCB1F] (AR v2)
Copy OK
Track 7
Filename D:\Temp\Массне - Manon - Gheorghiu, Alagna, Patriarco, van Dam - Pappano 1999\Массне - Manon - Antonio Pappano 1999 CD 3\07. Un mot, s'il vous plait, Chevalier.wav
Peak level 97.6 %
Extraction speed 2.2 X
Track quality 100.0 %
Test CRC 4FCD8A2B
Copy CRC 4FCD8A2B
Accurately ripped (confidence 5) [56CB2276] (AR v2)
Copy OK
Track 8
Filename D:\Temp\Массне - Manon - Gheorghiu, Alagna, Patriarco, van Dam - Pappano 1999\Массне - Manon - Antonio Pappano 1999 CD 3\08. Faites vos jeux, Messieurs.wav
Peak level 95.4 %
Extraction speed 2.8 X
Track quality 100.0 %
Test CRC C6C2829E
Copy CRC C6C2829E
Accurately ripped (confidence 5) [56E3B509] (AR v2)
Copy OK
Track 9
Filename D:\Temp\Массне - Manon - Gheorghiu, Alagna, Patriarco, van Dam - Pappano 1999\Массне - Manon - Antonio Pappano 1999 CD 3\09. Au jeu! ... Permettez-moi de jouer sur parole.wav
Peak level 99.0 %
Extraction speed 3.3 X
Track quality 100.0 %
Test CRC 59F14BB5
Copy CRC 59F14BB5
Accurately ripped (confidence 5) [C4EBE858] (AR v2)
Copy OK
Track 10
Filename D:\Temp\Массне - Manon - Gheorghiu, Alagna, Patriarco, van Dam - Pappano 1999\Массне - Manon - Antonio Pappano 1999 CD 3\10. Ouvrez! au nom du Roi!.wav
Peak level 93.8 %
Extraction speed 2.7 X
Track quality 100.0 %
Test CRC 6C5792DA
Copy CRC 6C5792DA
Accurately ripped (confidence 5) [146D0910] (AR v2)
Copy OK
Track 11
Filename D:\Temp\Массне - Manon - Gheorghiu, Alagna, Patriarco, van Dam - Pappano 1999\Массне - Manon - Antonio Pappano 1999 CD 3\11. Oui, je viens t'arracher a la honte.wav
Peak level 99.0 %
Extraction speed 3.3 X
Track quality 100.0 %
Test CRC 987E96BE
Copy CRC 987E96BE
Accurately ripped (confidence 5) [8168ACE7] (AR v2)
Copy OK
Track 12
Filename D:\Temp\Массне - Manon - Gheorghiu, Alagna, Patriarco, van Dam - Pappano 1999\Массне - Manon - Antonio Pappano 1999 CD 3\12. Act 5, Manon! Pauvre Manon!.wav
Pre-gap length 0:00:07.27
Peak level 68.1 %
Extraction speed 3.1 X
Track quality 99.9 %
Test CRC 22B8D794
Copy CRC 22B8D794
Accurately ripped (confidence 5) [D3DBB33A] (AR v2)
Copy OK
Track 13
Filename D:\Temp\Массне - Manon - Gheorghiu, Alagna, Patriarco, van Dam - Pappano 1999\Массне - Manon - Antonio Pappano 1999 CD 3\13. Capitaine, o gue, es-tu fatigue.wav
Peak level 67.6 %
Extraction speed 4.0 X
Track quality 100.0 %
Test CRC A2F48984
Copy CRC A2F48984
Accurately ripped (confidence 5) [D37AE1D2] (AR v2)
Copy OK
Track 14
Filename D:\Temp\Массне - Manon - Gheorghiu, Alagna, Patriarco, van Dam - Pappano 1999\Массне - Manon - Antonio Pappano 1999 CD 3\14. Ah! Des Grieux! O Manon! Tu pleures!.wav
Peak level 70.2 %
Extraction speed 3.9 X
Track quality 100.0 %
Test CRC AF8D8366
Copy CRC AF8D8366
Accurately ripped (confidence 5) [3AF2824F] (AR v2)
Copy OK
Track 15
Filename D:\Temp\Массне - Manon - Gheorghiu, Alagna, Patriarco, van Dam - Pappano 1999\Массне - Manon - Antonio Pappano 1999 CD 3\15. Qu'ai-je a te pardonner.wav
Peak level 92.4 %
Extraction speed 3.7 X
Track quality 100.0 %
Test CRC 2DA7BF2A
Copy CRC 2DA7BF2A
Accurately ripped (confidence 5) [0B4373F0] (AR v2)
Copy OK
Track 16
Filename D:\Temp\Массне - Manon - Gheorghiu, Alagna, Patriarco, van Dam - Pappano 1999\Массне - Manon - Antonio Pappano 1999 CD 3\16. Nous parlerons de passe.wav
Peak level 55.5 %
Extraction speed 3.2 X
Track quality 99.9 %
Test CRC 7EE60873
Copy CRC 7EE60873
Accurately ripped (confidence 5) [50F1085B] (AR v2)
Copy OK
Track 17
Filename D:\Temp\Массне - Manon - Gheorghiu, Alagna, Patriarco, van Dam - Pappano 1999\Массне - Manon - Antonio Pappano 1999 CD 3\17. N'est-ce plus ma main que cette main presse.wav
Peak level 99.0 %
Extraction speed 3.9 X
Track quality 100.0 %
Test CRC 1F32CED4
Copy CRC 1F32CED4
Accurately ripped (confidence 5) [280087D0] (AR v2)
Copy OK
All tracks accurately ripped
No errors occurred
End of status report
==== Log checksum D937CB6CE5646F39572E244633741DE5B7ACEC2B7C7BB2C9F896C2450F8E7C95 ====

Содержание индексной карты (.CUE)

Массне - Manon - Antonio Pappano 1999 CD 1.cue

REM GENRE Classical
REM DATE 2000
REM DISCID 13120B23
REM COMMENT "ExactAudioCopy v1.0b3"
PERFORMER "Angela Gheorghiu"
TITLE "Massenet: Manon (Disc 1)"
FILE "01. Prelude.wav" WAVE
TRACK 01 AUDIO
TITLE "Prelude"
PERFORMER ""
INDEX 01 00:00:00
FILE "02. Act 1. Hola! He! Monsieur l'Hotelier.wav" WAVE
TRACK 02 AUDIO
TITLE "Act 1. Hola! He! Monsieur l'Hotelier?"
PERFORMER ""
INDEX 01 00:00:00
FILE "03. Act 1. Hors-d'oeuvres de choix.wav" WAVE
TRACK 03 AUDIO
TITLE "Act 1. Hors-d'oeuvres de choix"
PERFORMER ""
INDEX 01 00:00:00
FILE "04. Act 1. Et mais, voila deja la rimbambelle des bons bourgeois!.wav" WAVE
TRACK 04 AUDIO
TITLE "Act 1. Et mais, voila deja la rimbambelle des bons bourgeois!"
PERFORMER ""
INDEX 01 00:00:00
FILE "05. Act 1. Allez a l'auberge voisine.wav" WAVE
TRACK 05 AUDIO
TITLE "Act 1. Allez a l'auberge voisine"
PERFORMER ""
INDEX 01 00:00:00
FILE "06. Act 1. Oh! ma coiffure! Oh! ma toilette!.wav" WAVE
TRACK 06 AUDIO
TITLE "Act 1. Oh! ma coiffure! Oh! ma toilette!"
PERFORMER ""
INDEX 01 00:00:00
FILE "07. Act 1. Voyez! cette jeune fille!.wav" WAVE
TRACK 07 AUDIO
TITLE "Act 1. Voyez! cette jeune fille!"
PERFORMER ""
INDEX 01 00:00:00
FILE "08. Act 1. Je suis encor tout etourdie.wav" WAVE
TRACK 08 AUDIO
TITLE "Act 1. Je suis encor tout etourdie"
PERFORMER ""
INDEX 01 00:00:00
FILE "09. Act 1. Partez! On sonne!.wav" WAVE
TRACK 09 AUDIO
TITLE "Act 1. Partez! On sonne!"
PERFORMER ""
INDEX 01 00:00:00
FILE "10. Act 1. Hotelier de malheur!.wav" WAVE
TRACK 10 AUDIO
TITLE "Act 1. Hotelier de malheur!"
PERFORMER ""
INDEX 01 00:00:00
FILE "11. Act 1. Il vous parlait, Manon.wav" WAVE
TRACK 11 AUDIO
TITLE "Act 1. Il vous parlait, Manon?"
PERFORMER ""
INDEX 01 00:00:00
FILE "12. Act 1. Regardez-moi bien dans les yeux!.wav" WAVE
TRACK 12 AUDIO
TITLE "Act 1. Regardez-moi bien dans les yeux!"
PERFORMER ""
INDEX 01 00:00:00
FILE "13. Act 1. Restons ici, puis-qu'il le faut!.wav" WAVE
TRACK 13 AUDIO
TITLE "Act 1. Restons ici, puis-qu'il le faut!"
PERFORMER ""
INDEX 01 00:00:00
FILE "14. Act 1. Voyons, Manon, plus de chimeres.wav" WAVE
TRACK 14 AUDIO
TITLE "Act 1. Voyons, Manon, plus de chimeres"
PERFORMER ""
INDEX 01 00:00:00
FILE "15. Act 1. Quelqu-un! Vite, a mon banc de pierre.wav" WAVE
TRACK 15 AUDIO
TITLE "Act 1. Quelqu-un! Vite, a mon banc de pierre"
PERFORMER ""
INDEX 01 00:00:00
FILE "16. Act 1. Madamoiselle!... Eh, quoi.wav" WAVE
TRACK 16 AUDIO
TITLE "Act 1. Madamoiselle!... Eh, quoi?"
PERFORMER ""
INDEX 01 00:00:00
FILE "17. Act 1. Ah! Parlez-moi!.wav" WAVE
TRACK 17 AUDIO
TITLE "Act 1. Ah! Parlez-moi!"
PERFORMER ""
INDEX 01 00:00:00
FILE "18. Act 1. Par aventure, peut-etre avons-nous mieux.wav" WAVE
TRACK 18 AUDIO
TITLE "Act 1. Par aventure, peut-etre avons-nous mieux"
PERFORMER ""
INDEX 01 00:00:00
FILE "19. Act 1. Nous vivrons a Paris tous les deux.wav" WAVE
TRACK 19 AUDIO
TITLE "Act 1. Nous vivrons a Paris tous les deux"
PERFORMER ""
INDEX 01 00:00:00
FILE "20. Act 1. Revenez, Guillot, revenez!.wav" WAVE
TRACK 20 AUDIO
TITLE "Act 1. Revenez, Guillot, revenez!"
PERFORMER ""
INDEX 01 00:00:00
FILE "21. Act 1. Plus un sou! Le tour est tres plaisant!.wav" WAVE
TRACK 21 AUDIO
TITLE "Act 1. Plus un sou! Le tour est tres plaisant!"
PERFORMER ""
INDEX 01 00:00:00
TRACK 22 AUDIO
TITLE "Act 2. Prelude"
PERFORMER ""
INDEX 00 02:48:32
FILE "22. Act 2. Prelude.wav" WAVE
INDEX 01 00:00:00
FILE "23. Act 2. Manon!... Avez-vous peur que mon visage frole.wav" WAVE
TRACK 23 AUDIO
TITLE "Act 2. Manon!... Avez-vous peur que mon visage frole"
PERFORMER ""
INDEX 01 00:00:00
FILE "24. Act 2. Il ne te suffit pas alors de nous aimer.wav" WAVE
TRACK 24 AUDIO
TITLE "Act 2. Il ne te suffit pas alors de nous aimer?"
PERFORMER ""
INDEX 01 00:00:00
FILE "25. Act 2. Qui donc se permet un pareil tapage.wav" WAVE
TRACK 25 AUDIO
TITLE "Act 2. Qui donc se permet un pareil tapage?"
PERFORMER ""
INDEX 01 00:00:00
FILE "26. Act 2. Madamoiselle est ma cousine.wav" WAVE
TRACK 26 AUDIO
TITLE "Act 2. Madamoiselle est ma cousine"
PERFORMER ""
INDEX 01 00:00:00
FILE "27. Act 2. Je venais d'ecrire a mon pere.wav" WAVE
TRACK 27 AUDIO
TITLE "Act 2. Je venais d'ecrire a mon pere"
PERFORMER ""
INDEX 01 00:00:00
FILE "28. Act 2. C'est parfait! On ne peut mieux dire.wav" WAVE
TRACK 28 AUDIO
TITLE "Act 2. C'est parfait! On ne peut mieux dire"
PERFORMER ""
INDEX 01 00:00:00
FILE "29. Act 2. Que nous veut-on.wav" WAVE
TRACK 29 AUDIO
TITLE "Act 2. Que nous veut-on?"
PERFORMER ""
INDEX 01 00:00:00
FILE "30. Act 2. Allons! il le faut pour lui-meme.wav" WAVE
TRACK 30 AUDIO
TITLE "Act 2. Allons! il le faut pour lui-meme"
PERFORMER ""
INDEX 01 00:00:00
FILE "31. Act 2. Adieu, notre petite table.wav" WAVE
TRACK 31 AUDIO
TITLE "Act 2. Adieu, notre petite table"
PERFORMER ""
INDEX 01 00:00:00
FILE "32. Act 2. C'est lui! Que ma paleur ne me trahisse pas!.wav" WAVE
TRACK 32 AUDIO
TITLE "Act 2. C'est lui! Que ma paleur ne me trahisse pas!"
PERFORMER ""
INDEX 01 00:00:00
FILE "33. Act 2. En fermant les yeux je vois la-bas.wav" WAVE
TRACK 33 AUDIO
TITLE "Act 2. En fermant les yeux je vois la-bas"
PERFORMER ""
INDEX 01 00:00:00
FILE "34. Act 2. Oh! Ciel! Deja!... Quelqu'un! Il ne faut pas de trouble-fete.wav" WAVE
TRACK 34 AUDIO
TITLE "Act 2. Oh! Ciel! Deja!... Quelqu'un! Il ne faut pas de trouble-fete"
PERFORMER ""
INDEX 01 00:00:00
TRACK 35 MODEx/2xxx
TITLE "Untitled CD-ROM Track"
PERFORMER ""
INDEX 00 01:44:62

Массне - Manon - Antonio Pappano 1999 CD 2.cue

REM GENRE Classical
REM DATE 2000
REM DISCID BB0CEA1D
REM COMMENT "ExactAudioCopy v1.0b3"
PERFORMER "Antonio Pappano"
TITLE "Massenet- Manon (Disc 2)"
FILE "01. Scene 1, Entracte - Menuet.wav" WAVE
TRACK 01 AUDIO
TITLE "Scene 1, Entracte - Menuet"
PERFORMER "Antonio Pappano"
INDEX 01 00:00:00
FILE "02. Voyez mules a fleurettes!.wav" WAVE
TRACK 02 AUDIO
TITLE "Voyez mules a fleurettes!"
PERFORMER "Antonio Pappano"
INDEX 01 00:00:00
FILE "03. La charmante promenade!.wav" WAVE
TRACK 03 AUDIO
TITLE "La charmante promenade!"
PERFORMER "Antonio Pappano"
INDEX 01 00:00:00
FILE "04. Choisir! Et pourquoi.wav" WAVE
TRACK 04 AUDIO
TITLE "Choisir! Et pourquoi?"
PERFORMER "Antonio Pappano"
INDEX 01 00:00:00
FILE "05. O Rosalinde, il me faudrait gravir le Pinde.wav" WAVE
TRACK 05 AUDIO
TITLE "O Rosalinde, il me faudrait gravir le Pinde"
PERFORMER "Antonio Pappano"
INDEX 01 00:00:00
FILE "06. Bonjour! Poussette! ... Dig et dig et don!.wav" WAVE
TRACK 06 AUDIO
TITLE "Bonjour! Poussette! ... Dig et dig et don!"
PERFORMER "Antonio Pappano"
INDEX 01 00:00:00
FILE "07. Voici les elegantes! Les belles indolentes.wav" WAVE
TRACK 07 AUDIO
TITLE "Voici les elegantes! Les belles indolentes"
PERFORMER "Antonio Pappano"
INDEX 01 00:00:00
FILE "08. Je marches sur tous les chemins.wav" WAVE
TRACK 08 AUDIO
TITLE "Je marches sur tous les chemins"
PERFORMER "Antonio Pappano"
INDEX 01 00:00:00
FILE "09. Obeissons quand leur voix appelle (Gavotte).wav" WAVE
TRACK 09 AUDIO
TITLE "Obeissons quand leur voix appelle (Gavotte)"
PERFORMER "Antonio Pappano"
INDEX 01 00:00:00
FILE "10. Et maintenant restez seul un instant.wav" WAVE
TRACK 10 AUDIO
TITLE "Et maintenant restez seul un instant"
PERFORMER "Antonio Pappano"
INDEX 01 00:00:00
FILE "11. Je ne me trompe pas, le Comte des Grieux.wav" WAVE
TRACK 11 AUDIO
TITLE "Je ne me trompe pas, le Comte des Grieux"
PERFORMER "Antonio Pappano"
INDEX 01 00:00:00
FILE "12. Oui, c'est Manon!.wav" WAVE
TRACK 12 AUDIO
TITLE "Oui, c'est Manon!"
PERFORMER "Antonio Pappano"
INDEX 01 00:00:00
FILE "13. Faut-it donc savoir tant de choses.wav" WAVE
TRACK 13 AUDIO
TITLE "Faut-it donc savoir tant de choses?"
PERFORMER "Antonio Pappano"
INDEX 01 00:00:00
FILE "14. Un mot encore!.wav" WAVE
TRACK 14 AUDIO
TITLE "Un mot encore!"
PERFORMER "Antonio Pappano"
INDEX 01 00:00:00
FILE "15. Repondez-moi, Guillot!.wav" WAVE
TRACK 15 AUDIO
TITLE "Repondez-moi, Guillot!"
PERFORMER "Antonio Pappano"
INDEX 01 00:00:00
FILE "16. L'Opera! Voici l'Opera!.wav" WAVE
TRACK 16 AUDIO
TITLE "L'Opera! Voici l'Opera!"
PERFORMER "Antonio Pappano"
INDEX 01 00:00:00
FILE "17. Ballet, Premiere Entree.wav" WAVE
TRACK 17 AUDIO
TITLE "Ballet, Premiere Entree"
PERFORMER "Antonio Pappano"
INDEX 01 00:00:00
FILE "18. Deuxieme Entree.wav" WAVE
TRACK 18 AUDIO
TITLE "Deuxieme Entree"
PERFORMER "Antonio Pappano"
INDEX 01 00:00:00
FILE "19. Troisieme Entree.wav" WAVE
TRACK 19 AUDIO
TITLE "Troisieme Entree"
PERFORMER "Antonio Pappano"
INDEX 01 00:00:00
FILE "20. Quatrieme Entree.wav" WAVE
TRACK 20 AUDIO
TITLE "Quatrieme Entree"
PERFORMER "Antonio Pappano"
INDEX 01 00:00:00
FILE "21. C'est fete au Cours-la-Reine!.wav" WAVE
TRACK 21 AUDIO
TITLE "C'est fete au Cours-la-Reine!"
PERFORMER "Antonio Pappano"
INDEX 01 00:00:00
TRACK 22 AUDIO
TITLE "Scene 2, Quelle eloquence!"
PERFORMER "Antonio Pappano"
INDEX 00 00:37:10
FILE "22. Scene 2, Quelle eloquence!.wav" WAVE
INDEX 01 00:00:00
FILE "23. Bravo mon cher, succes complet!.wav" WAVE
TRACK 23 AUDIO
TITLE "Bravo mon cher, succes complet!"
PERFORMER "Antonio Pappano"
INDEX 01 00:00:00
FILE "24. Epouse quelque brave fille.wav" WAVE
TRACK 24 AUDIO
TITLE "Epouse quelque brave fille"
PERFORMER "Antonio Pappano"
INDEX 01 00:00:00
FILE "25. Je suis seul! Seul enfin!.wav" WAVE
TRACK 25 AUDIO
TITLE "Je suis seul! Seul enfin!"
PERFORMER "Antonio Pappano"
INDEX 01 00:00:00
FILE "26. Ah! fuyez, douce image.wav" WAVE
TRACK 26 AUDIO
TITLE "Ah! fuyez, douce image"
PERFORMER "Antonio Pappano"
INDEX 01 00:00:00
FILE "27. Monsieur je veux parler a l'Abbe Des Grieux.wav" WAVE
TRACK 27 AUDIO
TITLE "Monsieur je veux parler a l'Abbe Des Grieux"
PERFORMER "Antonio Pappano"
INDEX 01 00:00:00
FILE "28. Toi! Vous! ... Oui, c'est moi!.wav" WAVE
TRACK 28 AUDIO
TITLE "Toi! Vous! ... Oui, c'est moi!"
PERFORMER "Antonio Pappano"
INDEX 01 00:00:00
FILE "29. N'est-ce plus ma main.wav" WAVE
TRACK 29 AUDIO
TITLE "N'est-ce plus ma main"
PERFORMER "Antonio Pappano"
INDEX 01 00:00:00

Массне - Manon - Antonio Pappano 1999 CD 3.cue

REM GENRE Classical
REM DATE 2000
REM DISCID D8097111
REM COMMENT "ExactAudioCopy v1.0b3"
PERFORMER "Antonio Pappano"
TITLE "Massenet- Manon (Disc 3)"
FILE "01. Act 4, Faites vos jeux, Messieurs!.wav" WAVE
TRACK 01 AUDIO
TITLE "Act 4, Faites vos jeux, Messieurs!"
PERFORMER "Antonio Pappano"
INDEX 01 00:00:00
FILE "02. Je vous jure que l'argent m'appartient.wav" WAVE
TRACK 02 AUDIO
TITLE "Je vous jure que l'argent m'appartient"
PERFORMER "Antonio Pappano"
INDEX 01 00:00:00
FILE "03. C'est ici que celle que j'aime.wav" WAVE
TRACK 03 AUDIO
TITLE "C'est ici que celle que j'aime"
PERFORMER "Antonio Pappano"
INDEX 01 00:00:00
FILE "04. Bravo, mon cher! ... Merci!.wav" WAVE
TRACK 04 AUDIO
TITLE "Bravo, mon cher! ... Merci!"
PERFORMER "Antonio Pappano"
INDEX 01 00:00:00
FILE "05. Mais donc nous arrive et fait tout ce tapage.wav" WAVE
TRACK 05 AUDIO
TITLE "Mais donc nous arrive et fait tout ce tapage?"
PERFORMER "Antonio Pappano"
INDEX 01 00:00:00
FILE "06. Manon, Sphinx etonnant, veritable sirene!.wav" WAVE
TRACK 06 AUDIO
TITLE "Manon, Sphinx etonnant, veritable sirene!"
PERFORMER "Antonio Pappano"
INDEX 01 00:00:00
FILE "07. Un mot, s'il vous plait, Chevalier.wav" WAVE
TRACK 07 AUDIO
TITLE "Un mot, s'il vous plait, Chevalier"
PERFORMER "Antonio Pappano"
INDEX 01 00:00:00
FILE "08. Faites vos jeux, Messieurs.wav" WAVE
TRACK 08 AUDIO
TITLE "Faites vos jeux, Messieurs"
PERFORMER "Antonio Pappano"
INDEX 01 00:00:00
FILE "09. Au jeu! ... Permettez-moi de jouer sur parole.wav" WAVE
TRACK 09 AUDIO
TITLE "Au jeu! ... Permettez-moi de jouer sur parole"
PERFORMER "Antonio Pappano"
INDEX 01 00:00:00
FILE "10. Ouvrez! au nom du Roi!.wav" WAVE
TRACK 10 AUDIO
TITLE "Ouvrez! au nom du Roi!"
PERFORMER "Antonio Pappano"
INDEX 01 00:00:00
FILE "11. Oui, je viens t'arracher a la honte.wav" WAVE
TRACK 11 AUDIO
TITLE "Oui, je viens t'arracher a la honte"
PERFORMER "Antonio Pappano"
INDEX 01 00:00:00
TRACK 12 AUDIO
TITLE "Act 5, Manon! Pauvre Manon!"
PERFORMER "Antonio Pappano"
INDEX 00 02:28:43
FILE "12. Act 5, Manon! Pauvre Manon!.wav" WAVE
INDEX 01 00:00:00
FILE "13. Capitaine, o gue, es-tu fatigue.wav" WAVE
TRACK 13 AUDIO
TITLE "Capitaine, o gue, es-tu fatigue"
PERFORMER "Antonio Pappano"
INDEX 01 00:00:00
FILE "14. Ah! Des Grieux! O Manon! Tu pleures!.wav" WAVE
TRACK 14 AUDIO
TITLE "Ah! Des Grieux! O Manon! Tu pleures!"
PERFORMER "Antonio Pappano"
INDEX 01 00:00:00
FILE "15. Qu'ai-je a te pardonner.wav" WAVE
TRACK 15 AUDIO
TITLE "Qu'ai-je a te pardonner"
PERFORMER "Antonio Pappano"
INDEX 01 00:00:00
FILE "16. Nous parlerons de passe.wav" WAVE
TRACK 16 AUDIO
TITLE "Nous parlerons de passe"
PERFORMER "Antonio Pappano"
INDEX 01 00:00:00
FILE "17. N'est-ce plus ma main que cette main presse.wav" WAVE
TRACK 17 AUDIO
TITLE "N'est-ce plus ma main que cette main presse?"
PERFORMER "Antonio Pappano"
INDEX 01 00:00:00
Доп. информация: На первом диске были бонусы, их я скопировать не смог.



Показать сообщения:    

Текущее время: 05-Дек 19:39

Часовой пояс: UTC + 3


Вы не можете начинать темы
Вы не можете отвечать на сообщения
Вы не можете редактировать свои сообщения
Вы не можете удалять свои сообщения
Вы не можете голосовать в опросах
Вы не можете прикреплять файлы к сообщениям
Вы не можете скачивать файлы