Последний поезд (Алексей Герман-мл.) [2003, Россия, драма, военный, DVDRip-AVC] Original Ger + Rus Subs


Статистика раздачи [Обновить пиров]
Размер:  1.46 GB   |    Зарегистрирован:  1 год   |    Скачан:  0 раз
Сидов:  1  [  0 KB/s  ]   Подробная статистика пиров
 
   
 
 
 

[Цитировать]

Последний поезд- Год выпуска: 2003
Страна: Россия
Жанр: драма, военный-Продолжительность: 01:19:42
Перевод: Субтитры Лицензия
Режиссёр: Алексей Герман-младший
В ролях: Павел Романов, Пётр Меркурькв, Алексей Девотненко, Александр Тюрин, Ирина Ракшина, Марина Раджиева, Наталья Львова, Олег Фёдоров, Сергей Носатов, Александр Ленин, Александр Карпухов, Сергей Толстов, Илья Мозговой, Константин Смирнов, Людмила Остроумова, Марина Белкина и др.-Описание: «Последний поезд» - картина о последнем дне жизни немецкого доктора Пауля Фишбаха. В начале зимы 1943 на восточный фронт, в охваченную войной Россию, прибывает пожилой немецкий хирург Пауль Фишбах. Прибывает, чтобы в хаосе неожиданного советского контрнаступления потеряться посреди заснеженных русских просторов и никогда больше не вернуться домой, в Германию.- -Sample-Качество: DVDRip-AVC
Формат: MKV
Видео: x264, 716x330@766X330 (2.35:1), 25 fps, ~2361 kbps
Аудио: German 48 kHz, AC2, 2 ch, ~256.00 kbps avg |Original (dubbed)|
Субтитры: русские (Лицензия)-

Фрагмент субтитров

1
00:02:31,320 --> 00:02:32,878
Спасибо.
2
00:03:15,320 --> 00:03:19,279
На огонь, воду и выдачу зарплаты
можно смотреть бесконечно.
3
00:04:28,680 --> 00:04:30,910
Огонька не найдется?
4
00:04:32,080 --> 00:04:33,911
Нет, я не курю.
5
00:04:41,680 --> 00:04:44,831
А потом мы уедем в Германию,
и будем жить там счастливо.
6
00:04:45,240 --> 00:04:48,391
А ты останешься здесь, и тебя мы
с собой не возьмем.
7
00:05:17,840 --> 00:05:19,592
Господин доктор,
8
00:05:22,080 --> 00:05:24,036
извините за опоздание.
9
00:05:52,120 --> 00:05:55,078
Небо затянуто тучами.
Кажется, будет метель.
10
00:06:06,040 --> 00:06:07,917
А теперь мы поедем.
11
00:06:21,360 --> 00:06:24,557
Доктор, вы в плохое время
приехали.
12
00:06:25,240 --> 00:06:28,789
Все затихло, никто не стреляет.
13
00:06:31,040 --> 00:06:33,270
Все ждут русского отступления.
14
00:06:53,880 --> 00:06:57,270
Я очень уважаю врачей. В детстве
я часто болел, еще с рождения.
15
00:06:58,080 --> 00:07:01,868
Я рождался из поперечного
положения, и врачи меня спасли.
16
00:07:02,320 --> 00:07:04,959
А еще у меня был
дифтерийный круп,
17
00:07:09,520 --> 00:07:11,238
а бабушка об этом не знала
18
00:07:11,600 --> 00:07:15,513
и повезла меня к врачу
через 5 дней.
19
00:07:16,360 --> 00:07:18,635
Я уже умирал,
20
00:07:19,240 --> 00:07:22,391
но он мне разрезал шею
и вставил трубочку.

MediaInfo

General
Unique ID : 210123861719002615536742336054316984128 (0x9E14623C3A1C4427B2B577E7BB476740)
Complete name : G:\Последний.поезд.2003.DVDRip-AVC.x264.AC3.-whip93.mkv
Format : Matroska
Format version : Version 4 / Version 2
File size : 1.46 GiB
Duration : 1h 19mn
Overall bit rate : 2 617 Kbps
Movie name : Последний поезд (2003) whip93
Encoded date : UTC 2015-11-21 11:45:52
Writing application : mkvmerge v6.1.0 ('Old Devil') built on Mar 4 2013 09:10:42
Writing library : libebml v1.3.0 + libmatroska v1.4.0
Attachements : cover.jpg
Video
ID : 1
Format : AVC
Format/Info : Advanced Video Codec
Format profile : High@L4.1
Format settings, CABAC : Yes
Format settings, ReFrames : 12 frames
Codec ID : V_MPEG4/ISO/AVC
Duration : 1h 19mn
Bit rate : 2 361 Kbps
Width : 716 pixels
Height : 330 pixels
Display aspect ratio : 2.35:1
Original display aspect ratio : 2.35:1
Frame rate mode : Constant
Frame rate : 25.000 fps
Color space : YUV
Chroma subsampling : 4:2:0
Bit depth : 8 bits
Scan type : Progressive
Bits/(Pixel*Frame) : 0.400
Stream size : 1.29 GiB (88%)
Title : whip93
Writing library : x264 core 142 r2431 ac76440
Encoding settings : cabac=1 / ref=12 / deblock=1:-2:-2 / analyse=0x3:0x113 / me=umh / subme=11 / psy=1 / psy_rd=1.00:0.03 / mixed_ref=1 / me_range=48 / chroma_me=1 / trellis=2 / 8x8dct=1 / cqm=0 / deadzone=21,11 / fast_pskip=1 / chroma_qp_offset=-6 / threads=12 / lookahead_threads=2 / sliced_threads=0 / nr=0 / decimate=1 / interlaced=0 / bluray_compat=0 / constrained_intra=0 / bframes=13 / b_pyramid=2 / b_adapt=2 / b_bias=0 / direct=1 / weightb=1 / open_gop=0 / weightp=2 / keyint=250 / keyint_min=23 / scenecut=40 / intra_refresh=0 / rc_lookahead=60 / rc=2pass / mbtree=1 / bitrate=2361 / ratetol=1.0 / qcomp=0.70 / qpmin=0 / qpmax=69 / qpstep=4 / cplxblur=20.0 / qblur=0.5 / vbv_maxrate=14000 / vbv_bufsize=14000 / nal_hrd=none / filler=0 / ip_ratio=1.40 / aq=1:0.80
Language : Russian
Default : Yes
Forced : No
Audio
ID : 2
Format : AC-3
Format/Info : Audio Coding 3
Mode extension : CM (complete main)
Format settings, Endianness : Big
Codec ID : A_AC3
Duration : 1h 19mn
Bit rate mode : Constant
Bit rate : 256 Kbps
Channel(s) : 2 channels
Channel positions : Front: L R
Sampling rate : 48.0 KHz
Bit depth : 16 bits
Compression mode : Lossy
Stream size : 146 MiB (10%)
Language : German
Default : Yes
Forced : No
Text
ID : 3
Format : UTF-8
Codec ID : S_TEXT/UTF8
Codec ID/Info : UTF-8 Plain Text
Language : Russian
Default : Yes
Forced : No
Menu
00:00:00.000 : ru:Глава 1
00:00:24.600 : ru:Глава 2
00:09:32.040 : ru:Глава 3
00:14:22.240 : ru:Глава 4
00:20:16.800 : ru:Глава 5
00:28:33.000 : ru:Глава 6
00:38:16.440 : ru:Глава 7
00:44:25.440 : ru:Глава 8
00:49:13.680 : ru:Глава 9
00:57:44.920 : ru:Глава 10
01:06:14.080 : ru:Глава 11
01:12:24.480 : ru:Глава 12
01:16:16.160 : ru:Глава 13

Скриншоты

-
[teatrix.ru].t10824.torrent 
Торрент: Зарегистрирован [ 2015-11-22 00:26 ] · B49EEBBD06AB7C633A56BCBA1107705E700584B0

Скачать .torrent

Скачать

59 KB

Статус: проверено
Скачан: 0 раз
Размер: 1.46 GB
terms.php



Быстрый ответ

Имя:

      
Для отправки сообщений необходимо включить JavaScript
Показать сообщения:    

Текущее время: 08-Дек 11:00

Часовой пояс: UTC + 3


Вы можете начинать темы
Вы можете отвечать на сообщения
Вы не можете редактировать свои сообщения
Вы не можете удалять свои сообщения
Вы не можете голосовать в опросах
Вы не можете прикреплять файлы к сообщениям
Вы можете скачивать файлы